Тайна трех океанов (Элеонора Тухарели) [2014, Документальный, HDTV 1080i]

 

Создавать темы 24-Мар-2014 15:56

Тайна трех океанов
Год выпуска: 2014
Страна: Россия
Студия: Единая медиа группа
Жанр: Документальный
Продолжительность: 00:53:00
Перевод: Не требуется
Режиссер: Элеонора Тухарели
Описание: Фильм "Тайна трех океанов" основан на документах, рассекреченных только в XXI веке. Автор и ведущий фильма Сергей Брилев расскажет о героической советской подлодке С-56, которая совершила уникальный, труднейший и опаснейший для своего времени переход с Тихоокеанского (из Владивостока) на Северный флот (в Мурманск) в 1942-1943 годах, покрыв более семнадцати тысяч морских миль через три океана и десять морей.
Приказ Верховного главнокомандующего отправил команду подлодки в кругосветное плавание, в течение которого моряки попадали в самые необычные приключения и сложнейшие смертельно опасные бои, находясь за тысячи миль от родины и героически решив поставленную задачу. Трудно судить о целесообразности этого приказа. Ведь в тот момент фашистские войска стояли под Москвой, на Севере хозяйничали фашистские подводники и перевести лодки с Балтики (где их и строили) было реально невозможно. А на Севере лодки были нужны.
Тип релиза: HDTV 1080i
Контейнер: TS
Видео: AVC, 1920х1080, 16:9, 7920 Кбит/сек, 25 fps
Аудио: AVC, 224 Кбит/сек, 48 КГц, 2 канала

MediaInfo

Общее
Идентификатор : 16 (0x10)
Полное имя : Mystery three oceans_HD.ts
Формат : MPEG-TS
Размер файла : 3,19 Гбайт
Продолжительность : 53 м.
Режим общего битрейта : Переменный
Общий поток : 8570 Кбит/сек
Видео
Идентификатор : 1901 (0x76D)
Идентификатор меню : 901 (0x385)
Формат : AVC
Формат/Информация : Advanced Video Codec
Профиль формата : [email protected]
Параметр CABAC формата : Да
Параметр ReFrames формата : 3 кадра
Идентификатор кодека : 27
Продолжительность : 53 м.
Битрейт : 7920 Кбит/сек
Ширина : 1920 пикселей
Высота : 1080 пикселей
Соотношение сторон : 16:9
Частота кадров : 25,000 кадров/сек
Стандарт вещания : PAL
Цветовое пространство : YUV
Субдискретизация насыщенности : 4:2:0
Битовая глубина : 8 бит
Тип развёртки : Чересстрочная
Порядок развёртки : Верхнее поле первое
Бит/(Пиксели*Кадры) : 0.153
Размер потока : 2,95 Гбайт (92%)
Основные цвета : BT.709
Характеристики трансфера : BT.709
Коэффициенты матрицы : BT.709
Аудио
Идентификатор : 2901 (0xB55)
Идентификатор меню : 901 (0x385)
Формат : MPEG Audio
Версия формата : Version 1
Профиль формата : Layer 2
Идентификатор кодека : 4
Продолжительность : 53 м.
Вид битрейта : Постоянный
Битрейт : 224 Кбит/сек
Каналы : 2 канала
Частота : 48,0 КГц
Метод сжатия : С потерями
Задержка видео : 39 мс.
Размер потока : 85,4 Мбайт (3%)
Язык : std
Язык, дополнительно : Clean effects

Скриншоты

Яндекс.Метрика
Рейтинг@Mail.ru