[ Сегодня на трекере фрилич! Идет свободное скачивание без начисления Download ]

Иоанна – женщина на папском престоле / Die Päpstin (Зёнке Вортманн / Sönke Wortmann) [2009 г., драма, мелодрама, BDRip] Dub [Jolly Roger]

 

Создавать темы 23-Мар-2014 21:45

-Иоанна – женщина на папском престоле / Die Päpstin-- Год выпуска: 2009 г.
Производство: Германия, Великобритания, Италия, Испания
Жанр: драма, мелодрама
Продолжительность: 02:20:47
Перевод: Профессиональный (полное дублирование)-Режиссер: Зёнке Вортманн / Sönke Wortmann-В ролях: Йоханна Вокалек, Дэвид Уэнэм, Джон Гудман, Айэйн Глен, Эдвард Петербридж, Анатоль Таубман, Лотти Флэк, Тайгерлили Хатчинсон, Йордис Трибель, Оливер Коттон-Описание: В тайных хранилищах Ватикана сокрыта история запрещенной страсти и интриги, державшаяся в секрете Католической церковью более тысячи лет. Хотя официально Ватикан до сих пор не признал того факта, что два года на святом престоле пребывала женщина, легенды об этом бытуют до сих пор.
Год 814 от Рождества Христова. 28 января умирает Карл Великий, в тот же день рождается Иоанна — страстная натура, умевшая любить, рисковать и побеждать…
-- --Качество видео: BDRip
Контейнер: AVI
Видео кодек: XviD
Аудио кодек: AC3
Видео: 720x304, 23,976 fps, 1282 kbps avg, 0.244 bit/pixel
Аудио: AC3 Dolby Digital, 48,0 kHz, 2 ch, 192 kbps-

Media Info

Общее
Полное имя : C:\Users\Ромик\Documents\[R.G. Jolly Roger]\Иоанна - женщина на папском престоле\Ioanna.Jenchina.Na.Papskom.Prestole.2009.BDRip.JRG.avi
Формат : AVI
Формат/Информация : Audio Video Interleave
Размер файла : 1,46 Гбайт
Продолжительность : 2 ч. 20 м.
Общий поток : 1484 Кбит/сек
Название фильма : Ioanna.Jenchina.Na.Papskom.Prestole.2009.BDRip.JRG.[pirat.ca]
Программа кодирования : VirtualDubMod 1.5.10.2 (build 2540/release)
Правообладатель : R.G. Jolly Roger
Примечание : http://pirat.ca
Видео
Идентификатор : 0
Формат : MPEG-4 Visual
Профиль формата : Advanced [email protected]
Параметр BVOP формата : 2
Параметр QPel формата : Нет
Параметр GMC формата : Без точки перехода
Параметр матрицы формата : Default (MPEG)
Идентификатор кодека : XVID
Идентификатор кодека/Подсказка : XviD
Продолжительность : 2 ч. 20 м.
Битрейт : 1282 Кбит/сек
Ширина : 720 пикселей
Высота : 304 пикселя
Соотношение сторон : 2,35:1
Частота кадров : 23,976 кадра/сек
Цветовое пространство : YUV
Субдискретизация насыщенности : 4:2:0
Битовая глубина : 8 бит
Тип развёртки : Прогрессивная
Метод сжатия : С потерями
Бит/(Пиксели*Кадры) : 0.244
Размер потока : 1,26 Гбайт (86%)
Библиотека кодирования : XviD 1.2.0.dev47 (UTC 2006-11-01)
Аудио
Идентификатор : 1
Формат : AC-3
Формат/Информация : Audio Coding 3
Расширение режима : CM (complete main)
Параметр Endianness формата : Big
Идентификатор кодека : 2000
Продолжительность : 2 ч. 20 м.
Вид битрейта : Постоянный
Битрейт : 192 Кбит/сек
Каналы : 2 канала
Расположение каналов : Front: L R
Частота : 48,0 КГц
Битовая глубина : 16 бит
Метод сжатия : С потерями
Размер потока : 193 Мбайт (13%)
Выравнивание : Разделение по промежуткам
Продолжительность промежутка : 42 мс. (1,00 видеокадр)
Время предзагрузки промежутка : 500 мс.
-

Скриншоты

Яндекс.Метрика
Рейтинг@Mail.ru