Разрушительница / The Demolitionist (Роберт Куртцман / Robert Kurtzman) [1995 г., боевик, триллер, фантастика, HDRip] DVO

 

Создавать темы 23-Мар-2014 05:28

-Разрушительница / The Demolitionist-- Производство: США, A-Pix Entertainment Inc., Le Monte Entertainment, Planet Productions
Год выпуска: 1995 г.
Жанр: боевик, триллер, фантастика
Продолжительность: 01:32:58
Мировая премьера: 10 марта 1995
Перевод: Профессиональный (двухголосый, закадровый)
Режиссер: Роберт Куртцман / Robert Kurtzman-В ролях: Николь Эггерт, Брюс Эбботт, Сьюзан Тиррелл, Питер Джейсон, Сара Даглас, Ричард Грико, Андраш Джоунс, Хезер Лэнгенкэмп, Дэвид Энтони Маршалл, Джек Нэнс, Джозеф Пилато, Том Савини, Нилс Аллен Стюарт-Описание: Действие этого женского варианта "Робокопа" происходит в неопределенном будущем. Из тюрьмы прямо во время собственной казни сбежал опаснейший преступник Грико, возглавляющий разгул преступности в городе. Он убивает следившую за ним симпатичную блондинку-полицейскую, но ученый дал ей новую жизнь в экспериментальном проекте "Лазарь". Мстительница, или разрушительница — так правильней перевести название фильма с английского — проходит тренировки и... Впрочем дальше любители боевиков пусть смотрят сами. Неплохие спецэффекты.-
Качество видео: HDRip
Контейнер: AVI
Видео кодек: XviD
Аудио кодек: AC3
Видео: 704х400, 1910 kbps, 24 fps, 0.283 Bits/Pixel
Аудио: 192 kbps, 2 ch, 48 kHz
Cубтитры: отсутствуют

Доп. информация

За предоставленный постер огромное спасибо Media-Art-Club
За исходник спасибо kaspr
Релиз группы Dream Team
Рип от ShuLeR

Media Info

General
Complete name : H:\Torrents\The.Demolitionist.1995.HDRip.by.ShuLeR.avi
Format : AVI
Format/Info : Audio Video Interleave
File size : 1.37 GiB
Duration : 1h 32mn
Overall bit rate : 2 111 Kbps
Writing application : VirtualDubMod 1.5.10.3 | www.virtualdub-fr.org || (build 2550/release)
Writing library : VirtualDubMod build 2550/release
Video
ID : 0
Format : MPEG-4 Visual
Format profile : Advanced [email protected]
Format settings, BVOP : 1
Format settings, QPel : No
Format settings, GMC : No warppoints
Format settings, Matrix : Default (MPEG)
Codec ID : XVID
Codec ID/Hint : XviD
Duration : 1h 32mn
Bit rate : 1 910 Kbps
Width : 704 pixels
Height : 400 pixels
Display aspect ratio : 16:9
Frame rate : 24.000 fps
Color space : YUV
Chroma subsampling : 4:2:0
Bit depth : 8 bits
Scan type : Progressive
Compression mode : Lossy
Bits/(Pixel*Frame) : 0.283
Stream size : 1.24 GiB (90%)
Writing library : XviD 1.2.1 (UTC 2008-12-04)
Audio
ID : 1
Format : AC-3
Format/Info : Audio Coding 3
Mode extension : CM (complete main)
Format settings, Endianness : Big
Codec ID : 2000
Duration : 1h 32mn
Bit rate mode : Constant
Bit rate : 192 Kbps
Channel count : 2 channels
Channel positions : Front: L R
Sampling rate : 48.0 KHz
Bit depth : 16 bits
Compression mode : Lossy
Stream size : 128 MiB (9%)
Alignment : Split accross interleaves
Interleave, duration : 42 ms (1.00 video frame)
Interleave, preload duration : 500 ms

Скриншоты

Яндекс.Метрика
Рейтинг@Mail.ru