Невероятная жизнь Уолтера Митти / The Secret Life of Walter Mitty (Бен Стиллер / Ben Stiller) [2013 г., приключения, мелодрама, драма, комедия, фэнтези, WEB-DL] MVO [Baibako]

 

Создавать темы 23-Мар-2014 05:00

-Невероятная жизнь Уолтера Митти / The Secret Life of Walter Mitty-«Stop Dreaming. Start Living»- Производство: США , Twentieth Century Fox Film Corporation, TSG Entertainment, Samuel Goldwyn Films
Год выпуска: 2013 г.
Жанр: приключения, мелодрама, драма, комедия, фэнтези
Продолжительность: 01:54:51
Мировая премьера: 5 октября 2013
Российская премьера: 1 января 2014, «Двадцатый Век Фокс СНГ»
Дата выхода DVD: 3 апреля 2014, «Двадцатый Век Фокс СНГ»
Дата выхода Blu-Ray: 3 апреля 2014, «Двадцатый Век Фокс СНГ»
Перевод: Любительский (многоголосый, закадровый) [Baibako]-Режиссер: Бен Стиллер / Ben Stiller
В ролях: Бен Стиллер,Кристен Уиг, Джон Дэйли, Кэтрин Хан, Теренс Берни Хайнс, Адам Скотт, Пол Фицджералд, Грэйс Рекс, Алекс Анфанджер, Аманда Нафтон-Описание:-Кто сказал, что в сердце маленького человека не могут жить великие мечты? Даже скромному и незаметному служащему хочется иногда совершить пусть безумные, но геройские поступки, поверить в свою силу и мужество. Почему всех спасать должны исключительно супермены?- -Качество видео: WEB-DL
Контейнер: AVI
Видео кодек: XviD
Аудио кодек: AC3
Видео: XviD build 50, 720x304 (2.37:1), 1567 kbps avg, 23.976 fps, 0.30 bit/pixel
Аудио: Русский: AC3 Dolby Digital, 128 kbps, 2/0 (L,R) ch, 48 kHz [MVO, Baibako]
Cубтитры: отсутствуют

Media Info

General
Complete name : C:\Users\Admin\Desktop\The.Secret.Life.of.Walter.Mitty.2013.WEB-DL.[Pirat.ca].avi
Format : AVI
Format/Info : Audio Video Interleave
File size : 1.37 GiB
Duration : 1h 54mn
Overall bit rate : 1 705 Kbps
Writing application : VirtualDubMod 1.5.10.2 (build 2540/release)
Writing library : VirtualDubMod build 2540/release
Video
ID : 0
Format : MPEG-4 Visual
Format profile : Advanced [email protected]
Format settings, BVOP : 2
Format settings, QPel : No
Format settings, GMC : No warppoints
Format settings, Matrix : Custom
Codec ID : XVID
Codec ID/Hint : XviD
Duration : 1h 54mn
Bit rate : 1 567 Kbps
Width : 720 pixels
Height : 304 pixels
Display aspect ratio : 2.35:1
Frame rate : 23.976 fps
Color space : YUV
Chroma subsampling : 4:2:0
Bit depth : 8 bits
Scan type : Progressive
Compression mode : Lossy
Bits/(Pixel*Frame) : 0.299
Stream size : 1.26 GiB (92%)
Writing library : XviD 1.2.1 (UTC 2008-12-04)
Audio
ID : 1
Format : AC-3
Format/Info : Audio Coding 3
Mode extension : CM (complete main)
Format settings, Endianness : Big
Codec ID : 2000
Duration : 1h 54mn
Bit rate mode : Constant
Bit rate : 128 Kbps
Channel(s) : 2 channels
Channel positions : Front: L R
Sampling rate : 48.0 KHz
Bit depth : 16 bits
Compression mode : Lossy
Stream size : 105 MiB (8%)
Alignment : Split accross interleaves
Interleave, duration : 42 ms (1.00 video frame)
Interleave, preload duration : 500 ms

Скриншоты

Яндекс.Метрика
Рейтинг@Mail.ru