Шестой (Самвел Гаспаров) [1981 г., военный, DVDRip]

 

Создавать темы 23-Мар-2014 04:57

-Шестой-- Производство: СССР, Киностудия им. Горького
Режиссер: Самвел Гаспаров
Жанр: военный
Год выпуска: 1981 г.
Продолжительность: 01:19:29
В ролях: Сергей Никоненко, Михаил Козаков, Владимир Грамматиков, Михаил Пуговкин, Евгений Бакалов, Тимофей Спивак, Сергей Ульянов, Михарбек Кокоев, Лариса Белогурова, Нина Меньшикова, Марина Яковлева, Борис Гитин, Георгий Милляр, Александр Галибин, Виктор Андриенко-Описание: Отгремела гражданская война. В маленьком южном городке появился шестой по счету начальник милиции. Предшественники Глодова вместе с другими активистами были зверски убиты бандой неуловимого Вахромеева. И теперь Глодову с пятью верными помощниками предстояла смертельная схватка с сильным врагом...-Качество видео: DVDRip
Контейнер: AVI
Видео кодек: DivX
Аудио кодек: AC3
Видео: 720x304; 1948 kbps; 25 fps; 0.356 bit/pixel
Аудио: 192.00 kbps; 48 kHz; 2 ch
Cубтитры: отсутствуют

Media Info

Общее
Полное имя : E:\Torrent\Shestoy_[Pirat.ca].torrent.avi
Формат : AVI
Формат/Информация : Audio Video Interleave
Размер файла : 1,19 Гбайт
Продолжительность : 1 ч. 19 м.
Общий поток : 2147 Кбит/сек
Программа кодирования : VirtualDubMod 1.5.4.1 (build 2178/release)
Библиотека кодирования : VirtualDubMod build 2178/release
Видео
Идентификатор : 0
Формат : MPEG-4 Visual
Параметр BVOP формата : 1
Параметр QPel формата : Нет
Параметр GMC формата : Без точки перехода
Параметр матрицы формата : Default (H.263)
Режим смешивания : Сжатый битовый поток
Идентификатор кодека : DX50
Идентификатор кодека/Подсказка : DivX 5
Продолжительность : 1 ч. 19 м.
Битрейт : 1948 Кбит/сек
Ширина : 720 пикселей
Высота : 304 пикселя
Соотношение сторон : 2,35:1
Частота кадров : 25,000 кадров/сек
Цветовое пространство : YUV
Субдискретизация насыщенности : 4:2:0
Битовая глубина : 8 бит
Тип развёртки : Прогрессивная
Метод сжатия : С потерями
Бит/(Пиксели*Кадры) : 0.356
Размер потока : 1,08 Гбайт (91%)
Библиотека кодирования : DivX 6.6.1.4
Аудио
Идентификатор : 1
Формат : AC-3
Формат/Информация : Audio Coding 3
Расширение режима : CM (complete main)
Параметр Endianness формата : Big
Идентификатор кодека : 2000
Продолжительность : 1 ч. 19 м.
Вид битрейта : Постоянный
Битрейт : 192 Кбит/сек
Каналы : 2 канала
Расположение каналов : Front: L R
Частота : 48,0 КГц
Битовая глубина : 16 бит
Метод сжатия : С потерями
Размер потока : 109 Мбайт (9%)
Выравнивание : Разделение по промежуткам
Продолжительность промежутка : 96 мс. (2,40 видеокадра)
Время предзагрузки промежутка : 96 мс.
Язык : Russian

Скриншоты

Раздача

Раздача с 13.00 до 1.30
Яндекс.Метрика
Рейтинг@Mail.ru