Зона высадки / Drop Zone (Джон Бэдэм / John Badham) [1994 г., Боевик, триллер, BDRip, 720p] MVO (R5, СТС,) + DVO (неизвестный, с VHS) + AVO (Гаврилов) + Subs (Rus, Eng)

 

Создавать темы 23-Мар-2014 04:50

-Зона высадки / Drop Zone-- Год выпуска: 1994
Производство: США, Paramount Pictures
Жанр: Боевик, триллер
Продолжительность: 01:41:32-Перевод: Профессиональный (многоголосый, закадровый) R5
Перевод 2: Профессиональный (многоголосый, закадровый) СТС
Перевод 3: Профессиональный (двухголосый, закадровый) неизвестный
Перевод 4: Профессиональный (двухголосый, закадровый) с VHS
Перевод 5: Авторский (одноголосый, закадровый) Андрей Гаврилов-Субтитры: русские, английские
Режиссер: Джон Бэдэм / John Badham
В ролях: Уэсли Снайпс, Гэри Бьюзи, Янси Батлер, Майкл Джитер, Корин Немек, Кайл Сикор, Лука Берковичи, Мальколм-Джамал Уорнер, Грэйс Забриски, Рекс Линн, Роберт ЛаСардо, Сэм Хеннингс, Клер Стэнсфилд, Мики Джонс, Энди Романо, Рик Зефф, Кларк Джонсон, Чарльз Босуэлл, Натали Джордан, Эд Аматрудо, Мелани Мэйрон, А.Дж. Росс, Эл Израэл, Стив Дюмошель, Дж.П. Патрик, Тим Пауэлл, Стив Ролерсон, Дэйл Сванн, Кейт Леон Уильямс, Лекси Бигхем, Рон Кульман, Джерри Тондо, Кимберли Скотт--Описание: Полицейский и его брат перевозили преступника, специалиста по компьютерам, для дачи показаний в суде. В самолете, в котором они везли этого компьютерного гения, на них напали террористы. Они взорвали кусок обшивки и выпрыгнули с парашютами, прихватив с собой этого ценного парня, столь нужного им для «работы». При этом брат полицейского погиб, а его самого отстранили от расследования, так как этого требовали правила следствия. Но полицейский, естественно, оставить этого так не мог. Он начинает поиски убийц.-- - -Качество видео: BDRip
Контейнер: MKV
Стандарт разрешения: 720p
Видео кодек: H.264
Аудио кодек: AC3
Видео: 1280x544 (2.35:1), 23.976 fps, H.264 AVC ~7 445 Kbps, 0.446 bit/pixel-Аудио : 48 kHz, AC3 Dolby Digital, 3/2 (L,C,R,l,r) + LFE ch, ~448 kbps - MVO (R5)
Аудио #2: 48 kHz, AC3, 2/0 (L,R) , ~192 Kbps - MVO (СТС)
Аудио #3: 48 kHz, AC3 Dolby Digital, 3/2 (L,C,R,l,r) + LFE ch, ~448 kbps - DVO (Неизвестный)
Аудио #4: 48 kHz, AC3, 2/0 (L,R) , ~192 Kbps - DVO (с VHS)
Аудио #5: 48 kHz, AC3 Dolby Digital, 3/2 (L,C,R,l,r) + LFE ch, ~448 kbps - Андрей Гаврилов-Формат субтитров: softsub (SRT)

Доп. информация

РИП
За исходник Blu-Ray Remux (1080p) спасибо 0ptimus (кинозал)

Media Info

General
Unique ID : 231607873622820007573099887399057894095 (0xAE3E0DCD7A847990895244B3CF962ACF)
Complete name : G:\На пиратку\__НА ПИРАТКУ HD\не розданное\Зона высадки (Drop Zone, 1994, BDRip, 720p) 2pm-2p2-Gavrilov_byGross.mkv
Format : Matroska
Format version : Version 2
File size : 6.64 GiB
Duration : 1h 41mn
Overall bit rate : 9 360 Kbps
Movie name : rip by Gross
Encoded date : UTC 2014-03-22 19:16:41
Writing application : mkvmerge v4.7.0 ('Just Like You Imagined') сборка от Apr 21 2011 01:13:14
Writing library : libebml v1.2.0 + libmatroska v1.1.0
Video
ID : 1
Format : AVC
Format/Info : Advanced Video Codec
Format profile : [email protected]
Format settings, CABAC : Yes
Format settings, ReFrames : 8 frames
Codec ID : V_MPEG4/ISO/AVC
Duration : 1h 41mn
Bit rate : 7 445 Kbps
Width : 1 280 pixels
Height : 544 pixels
Display aspect ratio : 2.35:1
Frame rate mode : Constant
Frame rate : 23.976 fps
Color space : YUV
Chroma subsampling : 4:2:0
Bit depth : 8 bits
Scan type : Progressive
Bits/(Pixel*Frame) : 0.446
Stream size : 5.28 GiB (80%)
Writing library : x264 core 130 r2273 b3065e6
Encoding settings : cabac=1 / ref=8 / deblock=1:0:0 / analyse=0x3:0x133 / me=umh / subme=11 / psy=1 / psy_rd=1.00:0.05 / mixed_ref=1 / me_range=24 / chroma_me=1 / trellis=2 / 8x8dct=1 / cqm=0 / deadzone=21,11 / fast_pskip=0 / chroma_qp_offset=-3 / threads=2 / lookahead_threads=1 / sliced_threads=0 / nr=0 / decimate=0 / interlaced=0 / bluray_compat=0 / constrained_intra=0 / bframes=8 / b_pyramid=2 / b_adapt=2 / b_bias=0 / direct=1 / weightb=1 / open_gop=0 / weightp=2 / keyint=250 / keyint_min=23 / scenecut=40 / intra_refresh=0 / rc_lookahead=40 / rc=crf / mbtree=1 / crf=18.0 / qcomp=0.60 / qpmin=0 / qpmax=69 / qpstep=4 / ip_ratio=1.40 / aq=1:1.00
Language : English
Default : Yes
Forced : No
Audio #1
ID : 2
Format : AC-3
Format/Info : Audio Coding 3
Mode extension : CM (complete main)
Format settings, Endianness : Big
Codec ID : A_AC3
Duration : 1h 41mn
Bit rate mode : Constant
Bit rate : 448 Kbps
Channel count : 6 channels
Channel positions : Front: L C R, Side: L R, LFE
Sampling rate : 48.0 KHz
Bit depth : 16 bits
Compression mode : Lossy
Stream size : 325 MiB (5%)
Title : pm (R5)
Language : Russian
Default : Yes
Forced : Yes
Audio #2
ID : 3
Format : AC-3
Format/Info : Audio Coding 3
Mode extension : CM (complete main)
Format settings, Endianness : Big
Codec ID : A_AC3
Duration : 1h 41mn
Bit rate mode : Constant
Bit rate : 192 Kbps
Channel count : 2 channels
Channel positions : Front: L R
Sampling rate : 48.0 KHz
Bit depth : 16 bits
Compression mode : Lossy
Stream size : 139 MiB (2%)
Title : pm (CTC)
Language : Russian
Default : No
Forced : No
Audio #3
ID : 4
Format : AC-3
Format/Info : Audio Coding 3
Mode extension : CM (complete main)
Format settings, Endianness : Big
Codec ID : A_AC3
Duration : 1h 41mn
Bit rate mode : Constant
Bit rate : 448 Kbps
Channel count : 6 channels
Channel positions : Front: L C R, Side: L R, LFE
Sampling rate : 48.0 KHz
Bit depth : 16 bits
Compression mode : Lossy
Stream size : 325 MiB (5%)
Title : p2
Language : Russian
Default : No
Forced : No
Audio #4
ID : 5
Format : AC-3
Format/Info : Audio Coding 3
Mode extension : CM (complete main)
Format settings, Endianness : Big
Codec ID : A_AC3
Duration : 1h 41mn
Bit rate mode : Constant
Bit rate : 192 Kbps
Channel count : 2 channels
Channel positions : Front: L R
Sampling rate : 48.0 KHz
Bit depth : 16 bits
Compression mode : Lossy
Stream size : 139 MiB (2%)
Title : p2 (VHS)
Language : Russian
Default : No
Forced : No
Audio #5
ID : 6
Format : AC-3
Format/Info : Audio Coding 3
Mode extension : CM (complete main)
Format settings, Endianness : Big
Codec ID : A_AC3
Duration : 1h 41mn
Bit rate mode : Constant
Bit rate : 448 Kbps
Channel count : 6 channels
Channel positions : Front: L C R, Side: L R, LFE
Sampling rate : 48.0 KHz
Bit depth : 16 bits
Compression mode : Lossy
Stream size : 325 MiB (5%)
Title : A1 (Gavrilov)
Language : Russian
Default : No
Forced : No
Text #1
ID : 7
Format : UTF-8
Codec ID : S_TEXT/UTF8
Codec ID/Info : UTF-8 Plain Text
Language : Russian
Default : No
Forced : No
Text #2
ID : 8
Format : UTF-8
Codec ID : S_TEXT/UTF8
Codec ID/Info : UTF-8 Plain Text
Language : English
Default : No
Forced : No

log x.264

x264 [info]: frame I:1032  Avg QP:16.79  size:148655
x264 [info]: frame P:30539 Avg QP:20.04 size: 59575
x264 [info]: frame B:114491 Avg QP:21.52 size: 33550
x264 [info]: consecutive B-frames: 1.5% 1.7% 8.0% 16.9% 18.0% 48.3% 4.0% 0.9% 0.8%
x264 [info]: mb I I16..4: 3.3% 82.1% 14.6%
x264 [info]: mb P I16..4: 0.4% 27.0% 1.5% P16..4: 24.8% 32.2% 12.2% 1.5% 0.1% skip: 0.2%
x264 [info]: mb B I16..4: 0.0% 10.7% 0.2% B16..8: 39.4% 21.5% 4.7% direct: 8.7% skip:14.8% L0:44.1% L1:44.6% BI:11.3%
x264 [info]: 8x8 transform intra:95.4% inter:69.1%
x264 [info]: coded y,uvDC,uvAC intra: 99.0% 76.3% 43.9% inter: 53.7% 35.6% 8.1%
x264 [info]: i16 v,h,dc,p: 23% 19% 16% 43%
x264 [info]: i8 v,h,dc,ddl,ddr,vr,hd,vl,hu: 6% 6% 13% 11% 15% 12% 13% 11% 13%
x264 [info]: i4 v,h,dc,ddl,ddr,vr,hd,vl,hu: 9% 7% 3% 9% 18% 16% 15% 12% 12%
x264 [info]: i8c dc,h,v,p: 35% 29% 19% 16%
x264 [info]: Weighted P-Frames: Y:4.0% UV:1.5%
x264 [info]: ref P L0: 41.8% 12.2% 19.3% 7.8% 6.6% 4.6% 4.4% 2.7% 0.3% 0.0%
x264 [info]: ref B L0: 74.6% 11.7% 6.1% 3.3% 2.4% 1.3% 0.6%
x264 [info]: ref B L1: 92.5% 7.5%
x264 [info]: kb/s:7634.85
x264 [total]: encoded 146062 frames, 0.99 fps, 7634.85 kb/s

Скриншоты

-
Яндекс.Метрика
Рейтинг@Mail.ru