[ Сегодня на трекере фрилич! Идет свободное скачивание без начисления Download ]

Восточный ветер / Ostwind - Zusammen sind wir frei (Катя фон Гарнье / Katja von Garnier) [2013 г., семейный, HDRip] VO (Pashaup)

 

Создавать темы 23-Мар-2014 04:48

-Восточный ветер / Ostwind - Zusammen sind wir frei-- Производство: Германия / Constantin Film Produktion GmbH, SamFilm GmbH
Год выпуска: 2013 г.
Жанр: семейный
Продолжительность: 01:45:28
Мировая премьера: 21 марта 2013, ...
Перевод: Любительский (одноголосый, закадровый) [Pashaup]
Режиссер: Катя фон Гарнье / Katja von Garnier-В ролях: Детлев Бук, Корнелия Фробесс, Ханна Хёппнер, Нина Кронягер, Марвин Линке, Тило Прюкнер, Мартин Тон, Юрген Фогель-Описание: Главную героиню фильма бунтарку Мику из-за плохих оценок в школе родители отправляет на целое лето на ранчо к строгой бабуле. Приехав в деревенскую глушь, девушка обнаруживает для себя кроме чтения книг довольно интересное занятие. В самом дальнем амбаре Мика встречает дикого норовистого жеребца по кличке Восточный ветер.
Мика внезапно чувствует в этом жеребце родственную душу и ночью приходит в амбар к Восточному ветру. Так начинается дружба двух неукротимых душ. Удастся ли Мике вопреки всему укротить жеребца?- Качество видео: HDRip
Контейнер: AVI
Видео кодек: XviD
Аудио кодек: AC3
Видео: 720x384 (1.88:1), 24 fps, XviD build 64 ~1712 kbps avg, 0.26 bit/pixel
Аудио: Rus: 44.1 kHz, AC3 Dolby Digital, 2/0 (L,R) ch, ~256 kbps (VO)
Cубтитры: отсутствуют

Media Info

General
Complete name : W:\Ostwind.2013.HDRip.avi
Format : AVI
Format/Info : Audio Video Interleave
File size : 1.46 GiB
Duration : 1h 45mn
Overall bit rate : 1 977 Kbps
Writing application : VirtualDubMod 1.5.10.3 (build 2550/release)
Writing library : VirtualDubMod build 2550/release
Video
ID : 0
Format : MPEG-4 Visual
Format profile : Advanced [email protected]
Format settings, BVOP : Yes
Format settings, QPel : No
Format settings, GMC : No warppoints
Format settings, Matrix : Custom
Codec ID : XVID
Codec ID/Hint : XviD
Duration : 1h 45mn
Bit rate : 1 712 Kbps
Width : 720 pixels
Height : 384 pixels
Display aspect ratio : 1.875
Frame rate : 24.000 fps
Color space : YUV
Chroma subsampling : 4:2:0
Bit depth : 8 bits
Scan type : Progressive
Bits/(Pixel*Frame) : 0.258
Stream size : 1.26 GiB (87%)
Writing library : XviD 64
Audio
ID : 1
Format : AC-3
Format/Info : Audio Coding 3
Mode extension : CM (complete main)
Codec ID : 2000
Duration : 1h 45mn
Bit rate mode : Constant
Bit rate : 256 Kbps
Channel(s) : 2 channels
Channel positions : Front: L R
Sampling rate : 44.1 KHz
Bit depth : 16 bits
Stream size : 193 MiB (13%)
Alignment : Split accross interleaves
Interleave, duration : 42 ms (1.00 video frame)
Interleave, preload duration : 500 ms

Скриншоты

Яндекс.Метрика
Рейтинг@Mail.ru