[ Сегодня на трекере фрилич! Идет свободное скачивание без начисления Download ]

Милые обманщицы / Pretty Little Liars (Норман Баккли, Рон Лагомарсино, Крис Грисмер)(2013,Триллер, Драма, Детектив) WEB-DLRip (Сезон 4, Серии 0-24 из 24) NewStudio

 

Создавать темы 22-Мар-2014 23:21

-Милые обманщицы / Pretty Little Liars (2013) WEB-DLRip (Сезон 4, Серии 0-24 из 24) NewStud- Год выпуска: 2013
Страна: США
Жанр: Триллер, Драма, Детектив
Перевод: Двуголосый закадровый, профессиональный - NewStudio

Автор перевода: Fiona
Озвучка: Yul, nikolas

Режиссер: Норман Баккли, Рон Лагомарсино, Крис Грисмер
Актеры: Люси Хейл, Тройэн Эвери Беллисарио, Эшли Бенсон, Холли Мари Комбс, Лора Лейтон, Чад Лоу, Шэй Митчел и др.
Описание фильма:
Сериал рассказывает о четырёх девушках — Спенсер, Ханне, Арии и Эмили, дружба которых прекратилась после исчезновения их общей лучшей подруги Элисон. Спустя год после её исчезновения, девушки начинают получать загадочные сообщения от анонима «A», который знает все их секреты — включая те, которые знала только Элисон — и угрожает их раскрытием. Но Элисон мертва. Кто же отправляет эти сообщения?
Продолжительность: ~00:44 серия
Качество видео: WEB-DLRip
Видеокодек: Xvid
Битрейт видео: ~1305 kb/s
Размер кадра: 720х400 (16:9)
Аудио #1: Русский (MPEG Layer 3, 128 kb/s, 2 ch) — двуголосый закадровый
Аудио #2: Английский (MPEG Layer 3, 128 kb/s, 2 ch) — оригинал Сэмпл

MediaInfo

Общее
Полное имя : D:\Downloads\Милые обманщицы (Сезон 4) Pretty Little Liars (2013) WEBDLRip\pretty.little.liars.s04e00.webdl_NewStudio.TV.avi
Формат : AVI
Формат/Информация : Audio Video Interleave
Размер файла : 500 Мбайт
Продолжительность : 44 м.
Общий поток : 1575 Кбит/сек
Программа кодирования : VirtualDubMod 1.5.10.2 (build 2540/release)
Библиотека кодирования : VirtualDubMod build 2540/release
Видео
Идентификатор : 0
Формат : MPEG-4 Visual
Профиль формата : Advanced [email protected]
Параметр BVOP формата : 2
Параметр QPel формата : Нет
Параметр GMC формата : Без точки перехода
Параметр матрицы формата : Default (MPEG)
Идентификатор кодека : XVID
Идентификатор кодека/Подсказка : XviD
Продолжительность : 44 м.
Битрейт : 1305 Кбит/сек
Ширина : 720 пикселей
Высота : 400 пикселей
Соотношение сторон : 16:9
Частота кадров : 23,976 кадра/сек
Цветовое пространство : YUV
Субдискретизация насыщенности : 4:2:0
Битовая глубина : 8 бит
Тип развёртки : Прогрессивная
Метод сжатия : С потерями
Бит/(Пиксели*Кадры) : 0.189
Размер потока : 414 Мбайт (83%)
Библиотека кодирования : XviD 64
Аудио #1
Идентификатор : 1
Формат : MPEG Audio
Версия формата : Version 1
Профиль формата : Layer 3
Идентификатор кодека : 55
Идентификатор кодека/Подсказка : MP3
Продолжительность : 44 м.
Вид битрейта : Постоянный
Битрейт : 128 Кбит/сек
Каналы : 2 канала
Частота : 48,0 КГц
Метод сжатия : С потерями
Размер потока : 40,6 Мбайт (8%)
Выравнивание : Соединение по промежуткам
Продолжительность промежутка : 42 мс. (1,00 видеокадр)
Время предзагрузки промежутка : 504 мс.
Аудио #2
Идентификатор : 2
Формат : MPEG Audio
Версия формата : Version 1
Профиль формата : Layer 3
Режим : Joint stereo
Расширение режима : MS Stereo
Идентификатор кодека : 55
Идентификатор кодека/Подсказка : MP3
Продолжительность : 44 м.
Вид битрейта : Постоянный
Битрейт : 128 Кбит/сек
Каналы : 2 канала
Частота : 48,0 КГц
Метод сжатия : С потерями
Размер потока : 40,6 Мбайт (8%)
Выравнивание : Соединение по промежуткам
Продолжительность промежутка : 42 мс. (1,00 видеокадр)
Время предзагрузки промежутка : 504 мс.
Скриншоты:
Яндекс.Метрика
Рейтинг@Mail.ru