Общее дело: Секреты манипуляции. Табак [2014 г., Просветительский]

 

Создавать темы 22-Мар-2014 18:28

Общее дело: Секреты манипуляции. Табак
Год выпуска: 2014
Жанр: Просветительский
Продолжительность: 00:35:14
Описание: Один из ярких примеров программирования сознания человека - это курение. За личный выбор курящий принимает то, что по факту является циничным финансовым расчетом третьей стороны. Какими уловками и техниками табачные маркетологи втянули в курение огромное количество женщин и молодежи, и почему? Из чего на самом деле состоят сигареты, и как они вызывают наркотическое привыкание? Пассивное курение и его плачевные последствия. Как создавалась мода на курение в нашей стране, и почему мы сами осуществляем план Гитлера в отношении России. Ответы на эти и многие другие вопросы мы находим в новом документальном фильме «Секреты манипуляции - Табак».
Формат: AVI
Видео кодек: DivX
Аудио кодек: MP3
Видео: DivX, 720x400 (1.80:1), 23.976 fps, DivX Codec 4.x ~2108 kbps avg, 0.25 bit/pixel
Аудио: MP3, 44.100 kHz, MPEG Layer 3, 2 ch, ~128.00 kbps avg

MI:

General
Complete name : C:rusveratabakgenocid.avi
Format : AVI
Format/Info : Audio Video Interleave
File size : 567 MiB
Duration : 35mn 15s
Overall bit rate : 2 249 Kbps
Writing application : Lavf52.32.0
Video
ID : 0
Format : MPEG-4 Visual
Format profile : [email protected]
Format settings, BVOP : No
Format settings, QPel : No
Format settings, GMC : No warppoints
Format settings, Matrix : Default (H.263)
Codec ID : DIVX
Codec ID/Info : Project Mayo
Codec ID/Hint : DivX 4
Duration : 35mn 14s
Bit rate : 2 109 Kbps
Width : 720 pixels
Height : 400 pixels
Display aspect ratio : 16:9
Frame rate : 23.976 fps
Color space : YUV
Chroma subsampling : 4:2:0
Bit depth : 8 bits
Scan type : Progressive
Compression mode : Lossy
Bits/(Pixel*Frame) : 0.25
Stream size : 532 MiB (94%)
Writing library : Lavc52.22.3
Audio
ID : 1
Format : MPEG Audio
Format version : Version 1
Format profile : Layer 3
Mode : Joint stereo
Mode extension : MS Stereo
Codec ID : 55
Codec ID/Hint : MP3
Duration : 35mn 15s
Bit rate mode : Constant
Bit rate : 128 Kbps
Channel(s) : 2 channels
Sampling rate : 44.1 KHz
Compression mode : Lossy
Stream size : 32.3 MiB (6%)
Alignment : Aligned on interleaves
Interleave, duration : 26 ms (0.63 video frame)
Writing library : LAME3.98.2

Скриншоты

Яндекс.Метрика
Рейтинг@Mail.ru