[ Сегодня на трекере фрилич! Идет свободное скачивание без начисления Download ]

Перехватчики: Дилогия / Interceptors: Dilogy (1999-2002) DVDRip

 

Создавать темы 21-Мар-2014 22:05

-Перехватчики / Interceptors (1999) DVDRip
«Они - единственная защита от инопланетян»
- Русское название: Перехватчики
Оригинальное название: Interceptors
Год выпуска: 1999
Страна: США
Жанр: Фантастика, Боевик, Триллер
Описание фильма:
«Перехватчики» (1999) — вторая совместная работа режиссёра Филлипа Дж. Рота и актёра Оливье Грюнера после фантастического опуса «В плену у скорости» (1998).
На этот раз они создали фильм о нашествии пришельца, которого сами прозвали Франсин.
Большая часть фильма происходит в небольшом мексиканском городке, где власть сосредоточена в руках бандитов, а вся полиция подкуплена. В этот городок прилетает капсула с неизвестным существом из Космоса, корабль которого был уничтожена во время воздушного боя с американскими истребителями. В этот городок прибывает группа «Перехватчиков», во главе с героем Оливье Грюнера. Их задача найти и уничтожить пришельца за определённое время иначе город будет уничтожен при помощи ядерного вооружения...
Картина получилась довольно зрелищной и смотрибельной с динамичной музыкой группы Mad Bus. Становится понятно, что создатели старались и, крепко подружились на съёмках. Отрывки со съёмок можно увидеть в самом конце фильма после заключительных титров.
Режиссер: Филлип Дж. Рот
Актеры: Оливье Грюнер, Брэд Дуриф, Эрни Хадсон, Уильям Забка, Гленн Пламмер, Энджел Борис, Mark Adair-Rios, Стефан Лысенко, Perry D'Marco, Холли Филдс
Продолжительность: 01:29:04
Перевод: Профессиональный (многоголосый, закадровый)

Дата мировой премьеры: 11 сентября 1999
Видеокодек: Xvid
Битрейт видео: ~2866 Кбит/сек
Размер кадра: 704х528
Качество видео: DVDRip
Аудио #1: AC3, 192 Кбит/сек, 2 канала, 48,0 КГц - Многоголосый закадровый
Аудио #2: AC3, 192 Кбит/сек, 2 канала, 48,0 КГц - Английский

MediaInfo:

Формат : AVI
Формат/Информация : Audio Video Interleave
Профиль формата : OpenDML
Размер файла : 2,02 Гбайт
Продолжительность : 1 ч. 29 м.
Общий поток : 3247 Кбит/сек
Программа кодирования : VirtualDubMod 1.5.10.2 (build 2540/release)
Библиотека кодирования : VirtualDubMod build 2540/release
Видео
Идентификатор : 0
Формат : MPEG-4 Visual
Профиль формата : Advanced [email protected]
Параметр BVOP формата : 2
Параметр QPel формата : Нет
Параметр GMC формата : Без точки перехода
Параметр матрицы формата : Default (MPEG)
Режим смешивания : Сжатый битовый поток
Идентификатор кодека : XVID
Идентификатор кодека/Подсказка : XviD
Продолжительность : 1 ч. 29 м.
Битрейт : 2866 Кбит/сек
Ширина : 704 пикселя
Высота : 528 пикселей
Соотношение сторон : 4:3
Частота кадров : 25,000 кадров/сек
Цветовое пространство : YUV
Субдискретизация насыщенности : 4:2:0
Битовая глубина : 8 бит
Тип развёртки : Прогрессивная
Метод сжатия : С потерями
Бит/(Пиксели*Кадры) : 0.308
Размер потока : 1,78 Гбайт (88%)
Библиотека кодирования : XviD 1.0.1 (UTC 2004-06-05)
Аудио #1
Идентификатор : 1
Формат : AC-3
Формат/Информация : Audio Coding 3
Расширение режима : CM (complete main)
Параметр Endianness формата : Big
Идентификатор кодека : 2000
Продолжительность : 1 ч. 23 м.
Вид битрейта : Постоянный
Битрейт : 192 Кбит/сек
Каналы : 2 канала
Расположение каналов : Front: L R
Частота : 48,0 КГц
Битовая глубина : 16 бит
Метод сжатия : С потерями
Размер потока : 115 Мбайт (6%)
Выравнивание : Разделение по промежуткам
Продолжительность промежутка : 42 мс. (1,06 видеокадр)
Время предзагрузки промежутка : 500 мс.
Аудио #2
Идентификатор : 2
Формат : AC-3
Формат/Информация : Audio Coding 3
Расширение режима : CM (complete main)
Параметр Endianness формата : Big
Идентификатор кодека : 2000
Продолжительность : 1 ч. 24 м.
Вид битрейта : Постоянный
Битрейт : 192 Кбит/сек
Каналы : 2 канала
Расположение каналов : Front: L R
Частота : 48,0 КГц
Битовая глубина : 16 бит
Метод сжатия : С потерями
Размер потока : 115 Мбайт (6%)
Выравнивание : Разделение по промежуткам
Продолжительность промежутка : 42 мс. (1,06 видеокадр)
Время предзагрузки промежутка : 500 мс.
-Перехватчики 2/ Interceptors 2 (2002) DVDRip
«Цель определена»
- Русское название: Перехватчики 2
Оригинальное название: Interceptor Force 2
Год выпуска: 2002
Страна: США
Жанр: Фантастика, Боевик, Триллер
Описание фильма:
После отличной первой части, мало кто ожидал, что вторая часть окажется такой же хорошей как и первая.
На этот раз действия фильма разворачиваются внутри Грозненской атомной электростанции, куда проникает инопланетное существо, только если в первой части был самец, то тут самка, с той же целью, то есть уничтожить всё человечество и заодно отомстить за смерть своего самца герою Оливье Грюнера лейтенанту Ламберту...
Постановка в фильме очень хорошая. Вновь в фильме имеются зрелищные перестрелки и рукопашные бои, в которых Оливье Грюнер отлично выступил. К тому же в фильме присутствует великолепный саундтрек, который отдельно хотелось бы отметить. Композитор Энтони Рипаретти безусловно отлично справился со своей задачей. Кроме того на протяжении всего кино обстановку поддерживает напряжённая атмосфера заставляя зрителя сопереживать героям.
В общем получился отличный фантастический боевик, чем-то лучше первой части, чем-то хуже. Рекомендую посмотреть этот фильм всем любителям данного жанра и конечно же фанатам и поклонникам Грюнера.
Режиссер: Филлип Дж. Рот
Актеры: Оливье Грюнер, Роджер Р. Кросс, Эдриенн Уилкинсон, Элизабет Грэйсен, Алекс Джолиг, Найджел Беннетт
Продолжительность: 01:27:30
Перевод: Профессиональный (многоголосый, закадровый)

Дата мировой премьеры: 30 ноября 2002
Видеокодек: Xvid
Битрейт видео: ~2526 Кбит/сек
Размер кадра: 704х528
Качество видео: DVDRip
Аудио #1: AC3, 384 Кбит/сек, 6 каналов, 48,0 КГц - Многоголосый закадровый
Аудио #2: AC3, 384 Кбит/сек, 6 каналов, 48,0 КГц - Английский

MediaInfo:

Формат : AVI
Формат/Информация : Audio Video Interleave
Профиль формата : OpenDML
Размер файла : 2,03 Гбайт
Продолжительность : 1 ч. 27 м.
Общий поток : 3313 Кбит/сек
Программа кодирования : VirtualDubMod 1.5.10.2 (build 2540/release)
Библиотека кодирования : VirtualDubMod build 2540/release
Видео
Идентификатор : 0
Формат : MPEG-4 Visual
Профиль формата : Advanced [email protected]
Параметр BVOP формата : 2
Параметр QPel формата : Нет
Параметр GMC формата : Без точки перехода
Параметр матрицы формата : Default (MPEG)
Режим смешивания : Сжатый битовый поток
Идентификатор кодека : XVID
Идентификатор кодека/Подсказка : XviD
Продолжительность : 1 ч. 27 м.
Битрейт : 2526 Кбит/сек
Ширина : 704 пикселя
Высота : 528 пикселей
Соотношение сторон : 4:3
Частота кадров : 25,000 кадров/сек
Цветовое пространство : YUV
Субдискретизация насыщенности : 4:2:0
Битовая глубина : 8 бит
Тип развёртки : Прогрессивная
Метод сжатия : С потерями
Бит/(Пиксели*Кадры) : 0.272
Размер потока : 1,54 Гбайт (76%)
Библиотека кодирования : XviD 1.0.1 (UTC 2004-06-05)
Аудио #1
Идентификатор : 1
Формат : AC-3
Формат/Информация : Audio Coding 3
Расширение режима : CM (complete main)
Параметр Endianness формата : Big
Идентификатор кодека : 2000
Продолжительность : 1 ч. 27 м.
Вид битрейта : Постоянный
Битрейт : 384 Кбит/сек
Каналы : 6 каналов
Расположение каналов : Front: L C R, Side: L R, LFE
Частота : 48,0 КГц
Битовая глубина : 16 бит
Метод сжатия : С потерями
Размер потока : 240 Мбайт (12%)
Выравнивание : Разделение по промежуткам
Продолжительность промежутка : 40 мс. (1,00 видеокадр)
Время предзагрузки промежутка : 500 мс.
Аудио #2
Идентификатор : 2
Формат : AC-3
Формат/Информация : Audio Coding 3
Расширение режима : CM (complete main)
Параметр Endianness формата : Big
Идентификатор кодека : 2000
Продолжительность : 1 ч. 27 м.
Вид битрейта : Постоянный
Битрейт : 384 Кбит/сек
Каналы : 6 каналов
Расположение каналов : Front: L C R, Side: L R, LFE
Частота : 48,0 КГц
Битовая глубина : 16 бит
Метод сжатия : С потерями
Размер потока : 240 Мбайт (12%)
Выравнивание : Разделение по промежуткам
Продолжительность промежутка : 40 мс. (1,00 видеокадр)
Время предзагрузки промежутка : 500 мс.

Создавать темы 24-Мар-2014 20:30 (спустя 2 дня 22 часа)

фильм та этот но с полным дублированием. где найти ?
Яндекс.Метрика
Рейтинг@Mail.ru