[ Сегодня на трекере фрилич! Идет свободное скачивание без начисления Download ]

Сага: Тень Кабала / SAGA - Curse of the Shadow (Джон Лойд / John Lyde) [2013 г., фэнтези, боевик, приключения, HDRip] MVO + Original (Eng)

 

Создавать темы 21-Мар-2014 02:34

-Сага: Тень Кабала / SAGA - Curse of the Shadow- Производство: США , Arrowstorm Entertainment, Mainstay Productions
Год выпуска: 2013 г.
Жанр: фэнтези, боевик, приключения
Продолжительность: 01:45:13
Мировая премьера: 18 июня 2013
Перевод: Профессиональный (многоголосый, закадровый)
Оригинальный аудиопоток: английский-Режиссер: Джон Лойд / John Lyde
В ролях: Даниэль Чачран, Ричард МакУильямс, Пол Хант, Джеймс С. Моррис, Ив Мауро, Дэнни Джеймс, Адам Абрам, Спенсер Барбер, Стефани Брейнхолт, Бэйли МиКелл Копертуэйт-Описание:-Война богов разорила землю, и оставшиеся в живых люди в отчаянии заключили соглашение с эльфами и гномами. Это положило конец войне, заставив орков и темных эльфов отступить в глубь пустоши. Однако данное соглашение, восстановив цивилизацию, возродило и древнее Зло. В темных углах таверн и в мрачных пещерах стал слышен шепот заговорщиков, известных как Тень…-Качество видео: HDRip
Контейнер: AVI
Видео кодек: XviD
Аудио кодек: AC3
Видео: XviD build 50, 720x400 (1.80:1), 1588 kbps avg, 23.976 fps, 0.23 bit/pixel
Аудио: Русский: AC3 Dolby Digital, 192 kbps, 2/0 (L,R) ch, 48 kHz [MVO]
Аудио #2: Английский: AC3 Dolby Digital, 192 kbps, 2/0 (L,R) ch, 48 kHz [Original]
Cубтитры: отсутствуют

Media Info

General
Complete name : C:\Users\Admin\Desktop\SAGA.Curse of the Shadow.2013.P.HDRip.avi
Format : AVI
Format/Info : Audio Video Interleave
File size : 1.46 GiB
Duration : 1h 45mn
Overall bit rate : 1 987 Kbps
Writing application : VirtualDubMod 1.5.10.2 (build 2540/release)
Writing library : VirtualDubMod build 2540/release
Video
ID : 0
Format : MPEG-4 Visual
Format profile : Advanced [email protected]
Format settings, BVOP : 2
Format settings, QPel : No
Format settings, GMC : No warppoints
Format settings, Matrix : Default (MPEG)
Codec ID : XVID
Codec ID/Hint : XviD
Duration : 1h 45mn
Bit rate : 1 589 Kbps
Width : 720 pixels
Height : 400 pixels
Display aspect ratio : 16:9
Frame rate : 23.976 fps
Color space : YUV
Chroma subsampling : 4:2:0
Bit depth : 8 bits
Scan type : Progressive
Compression mode : Lossy
Bits/(Pixel*Frame) : 0.230
Stream size : 1.17 GiB (80%)
Writing library : XviD 1.2.1 (UTC 2008-12-04)
Audio #1
ID : 1
Format : AC-3
Format/Info : Audio Coding 3
Mode extension : CM (complete main)
Format settings, Endianness : Big
Codec ID : 2000
Duration : 1h 45mn
Bit rate mode : Constant
Bit rate : 192 Kbps
Channel(s) : 2 channels
Channel positions : Front: L R
Sampling rate : 48.0 KHz
Bit depth : 16 bits
Compression mode : Lossy
Stream size : 144 MiB (10%)
Alignment : Split accross interleaves
Interleave, duration : 42 ms (1.00 video frame)
Interleave, preload duration : 500 ms
Audio #2
ID : 2
Format : AC-3
Format/Info : Audio Coding 3
Mode extension : CM (complete main)
Format settings, Endianness : Big
Codec ID : 2000
Duration : 1h 45mn
Bit rate mode : Constant
Bit rate : 192 Kbps
Channel(s) : 2 channels
Channel positions : Front: L R
Sampling rate : 48.0 KHz
Bit depth : 16 bits
Compression mode : Lossy
Stream size : 144 MiB (10%)
Alignment : Split accross interleaves
Interleave, duration : 42 ms (1.00 video frame)
Interleave, preload duration : 500 ms

Скриншоты

Яндекс.Метрика
Рейтинг@Mail.ru