[ Сегодня на трекере фрилич! Идет свободное скачивание без начисления Download ]

Выживут только любовники / Only Lovers Left Alive (Джим Джармуш / Jim Jarmusch) [2013 г., фантастика, триллер, драма, HDTVRip] MVO [Gears Media]

 

Создавать темы 20-Мар-2014 18:17

-Выживут только любовники / Only Lovers Left Alive-«Бессмертие надоедает...»- Производство: Великобритания , Германия , Франция , Кипр , США , Recorded Picture Company (RPC), Pandora Filmproduktion, Snow Wolf Produktion
Год выпуска: 2013 г.
Жанр: фантастика, триллер, драма
Продолжительность: 02:02:01
Мировая премьера: 25 мая 2013, Каннский кинофестиваль
Российская премьера: 10 апреля 2014, «Каравелла DDC»
Перевод: Любительский (многоголосый, закадровый) [Gears Media]-Режиссер: Джим Джармуш / Jim Jarmusch
В ролях: Том Хиддлстон, Тильда Суинтон, Миа Васиковска, Джон Хёрт, Антон Ельчин, Джеффри Райт, Слиман Дази, Картер Логан, Али Эмин, Ясмин Хамдан-Описание:-История древних вампиров Адама и Евы, которые видели ещё татаро-монгольское иго и инквизиции. Адам — рокер из Детройта, играющий андеграунд-музыку. Он уже очень старый, он хочет тишины, покоя, и тихо ненавидит «мертвецов» (так вампиры зовут людей). Ева же — напротив, весьма жизнерадостная вампирелла постарше, общающаяся с поэтом времён Шекспира, Кристофером Марло, и живущая в Танжере. Она приезжает вытаскивать своего любовника из пучины депрессии. Но идиллию нарушает внезапно заявляющаяся младшая сестра Евы — Ава. Исход ситуации предсказать не в силах никто — выживут только любовники?- -Качество видео: HDTVRip
Контейнер: AVI
Видео кодек: XviD
Аудио кодек: AC3
Видео: XviD MPEG-4, 720x384 (1.88:1), 1535 kbps avg, 29.970 fps, 0.19 bit/pixel
Аудио: AC3 Dolby Digital, 192 kbps, 2/0 (L,R) ch, 48 kHz
Cубтитры: Корейские
Формат субтитров: hardsub (неотключаемые)

Награды


Номинации
Каннский кинофестиваль, 2013 год: Золотая пальмовая ветвь

Media Info

General
Complete name : C:\Users\Admin\Desktop\Vyzhyvut.t0lko.lyubovn1ki.2013.P.HDTVRip.1.48Gb.avi
Format : AVI
Format/Info : Audio Video Interleave
File size : 1.48 GiB
Duration : 2h 2mn
Overall bit rate : 1 739 Kbps
Writing application : VirtualDubMod 1.5.10.2 (build 2540/release)
Writing library : VirtualDubMod build 2540/release
Video
ID : 0
Format : xvid
Codec ID : xvid
Duration : 2h 2mn
Bit rate : 1 535 Kbps
Width : 720 pixels
Height : 384 pixels
Display aspect ratio : 1.85:1
Frame rate : 29.970 fps
Bits/(Pixel*Frame) : 0.185
Stream size : 1.31 GiB (88%)
Audio
ID : 1
Format : AC-3
Format/Info : Audio Coding 3
Mode extension : CM (complete main)
Format settings, Endianness : Big
Codec ID : 2000
Duration : 2h 2mn
Bit rate mode : Constant
Bit rate : 192 Kbps
Channel(s) : 2 channels
Channel positions : Front: L R
Sampling rate : 48.0 KHz
Bit depth : 16 bits
Compression mode : Lossy
Stream size : 168 MiB (11%)
Alignment : Split accross interleaves
Interleave, duration : 33 ms (1.00 video frame)
Interleave, preload duration : 500 ms

Скриншоты

Яндекс.Метрика
Рейтинг@Mail.ru