Повестка в суд / Summoned (Питер Салливан / Peter Sullivan) [2013 г., ужасы, триллер, WEB-DLRip] VO (Barin101) + Original (Eng)

 

Создавать темы 20-Мар-2014 02:57

-Повестка в суд / Summoned-- Производство: США Lancom Entertainment, Production Media Group
Год выпуска: 2013 г.
Жанр: ужасы, триллер
Продолжительность: 01:29:39
Мировая премьера: 5 июля 2013
Перевод: Любительский (одноголосый, закадровый) [Barin101]
Оригинальный аудиопоток: английский
Режиссер: Питер Салливан / Peter Sullivan-В ролях: Кьюба Гудинг мл., Эшли Скотт, Бэйли Чейз, Джеймс Хонг, Тичина Арнольд, Аманда Перез, Тим Эбелл, Скотт Уайт, Энни Литтл, Марк ДеКарло-Описание: Пять лет назад Лаура Элкотт и 11 других присяжных вынесли обвинительный приговор серийному убийце Саймону Бурдиасу. Он сбежал из тюрьмы и теперь они начинают умирать один за другим.-
Качество видео: WEB-DLRip
Контейнер: AVI
Видео кодек: XviD
Аудио кодек: AC3
Видео: 720x400 (1.80:1), 23.976 fps, XviD MPEG-4 ~1785 kbps avg, 0.26 bit/pixel
Аудио: Rus: 48 kHz, AC3 Dolby Digital, 2/0 (L,R) ch, ~192 kbps VO (Barin101)
Аудио 2: Eng: 48 kHz, AC3 Dolby Digital, 2/0 (L,R) ch, ~192 kbps (Original)
Cубтитры: отсутствуют

Media Info

Общее
Полное имя : W:\Summoned.2013.L1.WEBDLRip.1400Mb.avi
Формат : AVI
Формат/Информация : Audio Video Interleave
Размер файла : 1,37 Гбайт
Продолжительность : 1 ч. 29 м.
Общий поток : 2184 Кбит/сек
Программа кодирования : VirtualDubMod 1.5.10.3 | (build 2550/release)
Библиотека кодирования : VirtualDubMod build 2550/release
Видео
Идентификатор : 0
Формат : MPEG-4 Visual
Профиль формата : Advanced [email protected]
Параметр BVOP формата : 1
Параметр QPel формата : Нет
Параметр GMC формата : Без точки перехода
Параметр матрицы формата : Выборочная
Режим смешивания : Сжатый битовый поток
Идентификатор кодека : XVID
Идентификатор кодека/Подсказка : XviD
Продолжительность : 1 ч. 29 м.
Битрейт : 1786 Кбит/сек
Ширина : 720 пикс.
Высота : 400 пикс.
Соотношение сторон : 16:9
Частота кадров : 23,976 кадр/сек
Цветовое пространство : YUV
Подвыборка цветности : 4:2:0
Битовая глубина : 8 бит
Тип развёртки : Прогрессивная
Метод сжатия : С потерями
Бит/(Пиксели*Кадры) : 0.259
Размер потока : 1,12 Гбайт (82%)
Библиотека кодирования : XviD 1.2.1 (UTC 2008-12-04)
Аудио #1
Идентификатор : 1
Формат : AC-3
Формат/Информация : Audio Coding 3
Расширение режима : CM (complete main)
Идентификатор кодека : 2000
Продолжительность : 1 ч. 29 м.
Вид битрейта : Постоянный
Битрейт : 192 Кбит/сек
Канал(ы) : 2 канала(ов)
Расположение каналов : Front: L R
Частота : 48,0 КГц
Битовая глубина : 16 бит
Метод сжатия : С потерями
Размер потока : 123 Мбайт (9%)
Выравнивание : Разделение по промежуткам
Продолжительность промежутка : 42 мс. (1,00 видеокадр)
Время предзагрузки промежутка : 500 ms
Аудио #2
Идентификатор : 2
Формат : AC-3
Формат/Информация : Audio Coding 3
Расширение режима : CM (complete main)
Идентификатор кодека : 2000
Продолжительность : 1 ч. 29 м.
Вид битрейта : Постоянный
Битрейт : 192 Кбит/сек
Канал(ы) : 2 канала(ов)
Расположение каналов : Front: L R
Частота : 48,0 КГц
Битовая глубина : 16 бит
Метод сжатия : С потерями
Размер потока : 123 Мбайт (9%)
Выравнивание : Разделение по промежуткам
Продолжительность промежутка : 42 мс. (1,00 видеокадр)
Время предзагрузки промежутка : 500 ms

Скриншоты

Яндекс.Метрика
Рейтинг@Mail.ru