Настоящая любовь / True Romance (Тони Скотт / Tony Scott) [1993 г., Триллер, мелодрама, драма, криминал, BDRip-AVC, 576р] [Режиссёрская версия / Director's Cut] AVO (Андрей Гаврилов)

 

Создавать темы 19-Мар-2014 07:40

Настоящая любовь (Режиссёрская версия) / True Romance (Director's Cut)«Stealing, Cheating, Killing. Who said romance is dead?»- Год выпуска: 1993
Производство: США
Жанр: Триллер, мелодрама, криминал
Продолжительность: 02:01:01
Перевод: Авторский (одноголосый) Андрей Гаврилов
Субтитры: Русские
Режиссер: Тони Скотт / Tony Scott
В ролях: Кристиан Слэйтер (Clarence Worley), Патриция Аркетт (Alabama Whitman), Майкл Рапапорт (Dick Ritchie), Вэл Килмер (Elvis, Mentor), Бронсон Пинчот (Elliot Blitzer), Деннис Хоппер (Clifford Worley), Гари Олдман (Drexl Spivey), Брэд Питт (Floyd), Том Сайзмор (Cody Nicholson), Кристофер Уокен (Vincenzo Coccotti) ...
Описание: Кларенс Уорли и Алабама Уитмэн познакомились и провели вместе ночь. Алабама призналась, что она делает первые шаги на трудном поприще «call-girl», то есть «девушки по вызову». Кларенс Уорли не был суперменом, однако, «навестив» сутенера Алабамы, оставил после себя два трупа — сутенера и его телохранителя.
А еще Уорли прихватил у них чемодан кокаина. Кларенс и Алабама сами себя назвали мужем и женой и отправились в «свадебное путешествие»… Через всю Америку… Чтобы сбыть наркотики и получить вместо них деньги…
По следу возлюбленных устремилась свора мафиози-ищеек: Америка — страна большая, однако спрятаться в ней, оказывается, негде!

kinopoisk
Источник/Качество: BDRip-AVC
Контейнер: AVI
Видео кодек: MPEG-4 AVC / H.264
Видео: 1024x554 (2.40:1) at 23.976 fps, [email protected], ~2900 kbps avg
Аудио: 48 kHz, AC3 Dolby Digital, 3/2 (L,C,R,l,r) + LFE ch, ~448 kbps avg - Гаврилов

Награды

Премия канала «MTV», 1994 год
Номинации (1):
Лучший поцелуй (Патриция Аркетт, Кристиан Слэйтер)
Сатурн, 1994 год
Номинации (3):
Лучший актер (Кристиан Слэйтер)
Лучшая актриса (Патриция Аркетт)
Лучший сценарий

Знаете ли вы, что...

  • Изначально сценарий «Настоящей любви» был частью огромного сценария, написанного Квентином Тарантино и Роджером Эвэри. Другая часть этого сценария впоследствии была использована для «Прирожденных убийц» (1994). В обоих фильмах Том Сайзмор сыграл полицейского.
  • Квентин Тарантино продал сценарий фильма, для того чтобы найти средства для финансирования «Бешенных псов» (1992).
  • Монолог Эллиота в сцене, где его останавливает полицейский, является импровизацией Бронсона Пинчота.
  • Фильм, который смотрят Алабама и Кларенс в квартире - «Светлое будущее 2: Ураганный огонь» (1987) Джона Ву.
  • Квентин Тарантино продал сценарий за $50.000, что согласно правилам WGA было минимальной суммой, которую мог получить сценарист за свою работу.
  • Тарантино хотел, чтобы Роберт Форстер сыграл Коккотти, но роль досталась Кристоферу Уокену.
  • По словам Денниса Хопера, в сцене диалога между Винченцо Коккотти (Кристофер Уокен) и Клиффордом Уорли (Деннис Хоппер) практически не было импровизации, актеры лишь добавили фразы про «баклажан» и «канталуп».
  • Слово «fuck» произносится по ходу действия фильма 225 раз.
  • По словам Квентина Тарантино, за всё время работы над фильмом он ни разу не появился на съёмочной площадке.
  • Изначально структура сценария была другой: первые две трети фильма должны были быть рассказаны в нелинейном порядке.
  • Изначально Кларенс, Алабама, Дик и Эллиот должны были встретиться в зоопарке. Тони Скотт изменил место встречи на парк развлечений.
  • Когда Кларенс и Алабама показывают кокаин Дику в комнате отеля, фильм, который идет по ТВ - «Беглец с того света» (a.k.a. «Корпорация «Бессмертие») (1992).
  • Брэд Питт сам предложил идею того, чтобы его персонаж был «прикован» к дивану.
  • Съёмки сцены на американских горках заняли два дня.
  • Режиссером фильма мог стать Уильям Лустиг, снимающий фильмы категории «Б», но его кандидатуру отклонил Квентин Тарантино.
  • В первой версии сценария Дрексел убивал Большого Дона и Флойда Ди из-за того, что последний называл его «white boy». В данной сцене также отсутствовал Марти.
  • Закадровый монолог Патриции Аркетт в начале фильма позаимствован из «Пустошей» (1973).
  • Количество трупов: 21. Все они - мужчины, все погибли от пулевых ранений.
  • По словам Гари Олдмана, образ Дрекселя он сымитировал с актера Уилли Уан Блада, с которым он позднее сыграл вместе в «Леоне» (1994).
  • Джек Блэк исполнил роль-камео: билетер в кинотеатре. Но сцена с его участием была вырезана из фильма. Данную сцену можно найти на DVD в разделе «Удаленные сцены».
  • В сцене телефонного разговора между Кларенсом и Диком позади Дика можно заметить постер фильма «My Blood Runs Cold» (1965).
  • По словам Тони Скотта, Вэл Килмер хотел сыграть Кларенса.
  • В последней сцене фильма в роли сына Алабамы и Кларенса снялся сын Патриции Аркетт, Энзо.
  • После завершения съёмок Тони Скотт подарил Патриции Аркетт «Кадиллак», использованный для съёмок.
  • Гримерам требовалось 8 часов на то, чтобы превратить Вэла Килмера в Элвиса Пресли. На счастье Килмера все сцены с его участием были отсняты за два дня.
  • Первоначальная концовка: Кларенс погибает в перестрелке в мотеле, Алабама остается вдовой. По словам Тарантино, впоследствии Алабама должна была познакомиться с мистером Белым (персонаж из «Бешенных псов» (1992)) и вместе с ним начать жить по другую сторону закона. В одной из сцен «Бешенных псов» мистера Белого спрашивают о Алабаме.

Media Info

Формат : Matroska
Версия формата : Version 4 / Version 2
Размер файла : 2,83 Гбайт
Продолжительность : 2 ч. 1 м.
Общий поток : 3350 Кбит/сек
Название фильма : True Romance (Director's Cut) 1993
Дата кодирования : UTC 2014-03-17 06:46:20
Программа кодирования : mkvmerge v6.8.0 ('Theme for Great Cities') 32bit built on Mar 2 2014 21:27:07
Библиотека кодирования : libebml v1.3.0 + libmatroska v1.4.1
Видео
Идентификатор : 1
Формат : AVC
Формат/Информация : Advanced Video Codec
Профиль формата : [email protected]
Параметр CABAC формата : Да
Параметр ReFrames формата : 8 кадров
Идентификатор кодека : V_MPEG4/ISO/AVC
Продолжительность : 2 ч. 1 м.
Битрейт : 2900 Кбит/сек
Ширина : 1024 пикселя
Высота : 426 пикселей
Соотношение сторон : 2,40:1
Режим частоты кадров : Постоянный
Частота кадров : 23,976 кадра/сек
Цветовое пространство : YUV
Субдискретизация насыщенности : 4:2:0
Битовая глубина : 8 бит
Тип развёртки : Прогрессивная
Бит/(Пиксели*Кадры) : 0.277
Размер потока : 2,40 Гбайт (85%)
Заголовок : True Romance
Библиотека кодирования : x264 core 125 r2200 999b753
Настройки программы : cabac=1 / ref=8 / deblock=1:-2:-1 / analyse=0x3:0x133 / me=umh / subme=11 / psy=1 / psy_rd=1.00:0.00 / mixed_ref=1 / me_range=32 / chroma_me=1 / trellis=2 / 8x8dct=1 / cqm=0 / deadzone=21,11 / fast_pskip=1 / chroma_qp_offset=-2 / threads=4 / lookahead_threads=1 / sliced_threads=0 / nr=0 / decimate=1 / interlaced=0 / bluray_compat=0 / constrained_intra=0 / bframes=9 / b_pyramid=2 / b_adapt=2 / b_bias=0 / direct=3 / weightb=1 / open_gop=0 / weightp=2 / keyint=230 / keyint_min=23 / scenecut=40 / intra_refresh=0 / rc=2pass / mbtree=0 / bitrate=2900 / ratetol=1.0 / qcomp=0.60 / qpmin=0 / qpmax=69 / qpstep=4 / cplxblur=20.0 / qblur=0.5 / ip_ratio=1.40 / pb_ratio=1.30 / aq=1:1.00
Язык : English
Default : Да
Forced : Нет
Аудио
Идентификатор : 2
Формат : AC-3
Формат/Информация : Audio Coding 3
Расширение режима : CM (complete main)
Параметр Endianness формата : Big
Идентификатор кодека : A_AC3
Продолжительность : 2 ч. 1 м.
Вид битрейта : Постоянный
Битрейт : 448 Кбит/сек
Каналы : 6 каналов
Расположение каналов : Front: L C R, Side: L R, LFE
Частота : 48,0 КГц
Битовая глубина : 16 бит
Метод сжатия : С потерями
Размер потока : 388 Мбайт (13%)
Заголовок : Gavrilov AC3 5.1 @ 448 kbps
Язык : Russian
Default : Да
Forced : Нет
Текст
Идентификатор : 3
Формат : UTF-8
Идентификатор кодека : S_TEXT/UTF8
Идентификатор кодека/Информация : UTF-8 Plain Text
Язык : Russian
Default : Нет
Forced : Нет
Меню
00:00:00.000 : :Chapter 01
00:05:00.000 : :Chapter 02
00:10:00.000 : :Chapter 03
00:15:00.000 : :Chapter 04
00:20:00.000 : :Chapter 05
00:25:00.000 : :Chapter 06
00:30:00.000 : :Chapter 07
00:35:00.000 : :Chapter 08
00:40:00.000 : :Chapter 09
00:45:00.000 : :Chapter 10
00:50:00.000 : :Chapter 11
00:55:00.000 : :Chapter 12
01:00:00.000 : :Chapter 13
01:05:00.000 : :Chapter 14
01:10:00.000 : :Chapter 15
01:15:00.000 : :Chapter 16
01:20:00.000 : :Chapter 17
01:25:00.000 : :Chapter 18
01:30:00.000 : :Chapter 19
01:35:00.000 : :Chapter 20
01:40:00.000 : :Chapter 21
01:45:00.000 : :Chapter 22
01:50:00.000 : :Chapter 23
01:55:00.000 : :Chapter 24
02:00:00.000 : :Chapter 25

Скриншоты

Яндекс.Метрика
Рейтинг@Mail.ru