[ Сегодня на трекере фрилич! Идет свободное скачивание без начисления Download ]

Сумасшедший / Сумасшедшая семейка / Pazze di me (Фаусто Брицци / Fausto Brizzi) [2013 г., комедия, HDRip] VO (datynet)

 

Создавать темы 19-Мар-2014 02:36

-Сумасшедший / Сумасшедшая семейка / Pazze di me-- Производство: Италия / Monte dei Paschi di Siena, Rai Cinema
Год выпуска: 2013 г.
Жанр: комедия
Продолжительность: 01:34:51
Мировая премьера: 24 января 2013
Перевод: Любительский (одноголосый, закадровый) [datynet]
Режиссер: Фаусто Брицци / Fausto Brizzi-В ролях: Франческо Манделли, Лоретта Годжи, Киара Франчини, Клаудия Дзанелла, Марина Рокко, Валерия Билелло, Люсия Поли, Паола Миначчони, Маурицио Микели, Флавио Инсинна, Маргерита Викарио, Алессандро Тибери, Фабрицио Биджо, Пиф, Эди Анжелилло, Маурицио Лопс, Раффаэле Ванноли, Микеле Ла Джинестра, Джузеппе Морроне, Кевин Чиароре, Сони Баттисти, Фатима Деодато, Линда Ди Серио, Франческа Фигус, Лучия Боденидза, Филиппо Рома-Описание: Андреа - единственный парень в чисто женской семье: мама, три сестры, бабушка, ее сиделка и собака, конечно же цензура. Отец семейства сбежал от них много лет назад, не вынеся этот женский "коллектив". Перед уходом он сказал сыну: "Теперь это твоя головная боль". Только через много лет он понял, что имел ввиду отец. Андреа пришлось очень нелегко, всю его жизнь его семья, может и не преднамеренно, но отравляла ему жизнь, в особенности в плане отношений с девушками. И вот, когда он встретил девушку всей своей жизни, Андреа не нашел ничего умнее, как выдать себя за сироту. И все бы было хорошо, но такую семью нелегко скрыть, даже в большом городе и обман раскрылся...-Качество видео: HDRip
Контейнер: AVI
Видео кодек: XviD
Аудио кодек: AC3
Видео: 720x304 (2.37:1), 24.000 fps, XviD build 73 ~2016 kbps avg, 0.384 bit/pixel
Аудио: Rus: 44.1 kHz, AC3 Dolby Digital, 2/0 (L,R) ch, ~192 kbps VO (datynet)
Cубтитры: отсутствуют

Media Info

Общее
Полное имя : W:\Сумасшедшая семейка (Без ума от меня, Сумасшедший).2013.HDRip.avi
Формат : AVI
Формат/Информация : Audio Video Interleave
Размер файла : 1,47 Гбайт
Продолжительность : 1 ч. 34 м.
Общий поток : 2218 Кбит/сек
Видео
Идентификатор : 0
Формат : MPEG-4 Visual
Профиль формата : Advanced [email protected]
Параметр BVOP формата : 2
Параметр QPel формата : Нет
Параметр GMC формата : Без точки перехода
Параметр матрицы формата : Default (H.263)
Идентификатор кодека : XVID
Идентификатор кодека/Подсказка : XviD
Продолжительность : 1 ч. 34 м.
Битрейт : 2016 Кбит/сек
Ширина : 720 пикс.
Высота : 304 пикс.
Соотношение сторон : 2,35:1
Частота кадров : 24,000 кадр/сек
Цветовое пространство : YUV
Подвыборка цветности : 4:2:0
Битовая глубина : 8 бит
Тип развёртки : Прогрессивная
Метод сжатия : С потерями
Бит/(Пиксели*Кадры) : 0.384
Размер потока : 1,34 Гбайт (91%)
Библиотека кодирования : XviD 73
Аудио
Идентификатор : 1
Формат : AC-3
Формат/Информация : Audio Coding 3
Расширение режима : CM (complete main)
Идентификатор кодека : 2000
Продолжительность : 1 ч. 34 м.
Вид битрейта : Постоянный
Битрейт : 192 Кбит/сек
Канал(ы) : 2 канала(ов)
Расположение каналов : Front: L R
Частота : 44,1 КГц
Битовая глубина : 16 бит
Метод сжатия : С потерями
Задержка видео : 19 мс.
Размер потока : 130 Мбайт (9%)
Выравнивание : Соединение по промежуткам
Продолжительность промежутка : 35 мс. (0,84 видеокадр)
Время предзагрузки промежутка : 522 ms

Скриншоты

Яндекс.Метрика
Рейтинг@Mail.ru