Белые люди не умеют прыгать / Белые Не Могут Прыгать / White Men Can't Jump (Рон Шелтон / Ron Shelton) [1992 г., Комедия, BDRip-AVC] AVO (Дохалов, Живов)

 

Создавать темы 19-Мар-2014 02:34

Белые люди не умеют прыгать / Белые Не Могут Прыгать / White Men Can't Jump«It ain't easy being this good»- Год выпуска: 1992
Страна: США
Жанр: Комедия
Продолжительность: 01:56:53
Перевод: Авторский (одноголосый): 1-я дорожка - Вартан Дохалов; 2-я дорожка - Юрий Живов
Русские субтитры: нет
Режиссер: Рон Шелтон / Ron Shelton
В ролях: Уэсли Снайпс / Wesley Snipes, Вуди Харрельсон / Woody Harrelson, Рози Перес / Rosie Perez, Тайра Феррелл / Tyra Ferrell, Силк Козарт / Cylk Cozart, Кадим Хардисон / Kadeem Hardison, Эрнест Харден-мл. / Ernest Harden Jr., Джон Маршалл Джоунс / John Marshall Jones, Джон Хендрикс / Jon Hendricks, Сонни Крэйвер / Sonny Craver, Найджел Мигель / Nigel Miguel, Маркес Джонсон / Marques Johnson, Билл Хендерсон / Bill Henderson, Илой Касадос / Eloy Casados
Описание: Хэррелсон в роли мошенника... баскетболиста, обыгрывающего дворовых игроков на большие деньги. После того как он встретил еще более ловкого коллегу Снайпса, парочка объединяется, чтобы сорвать большой куш. Остроумная и энергичная комедия понравится не только любителям смотреть, как высокие мужчины виртуозно забрасывают мячи в корзину. Особенно следует отметить блестящую игру Перес в роли подружки Хэррелсона. (Иванов М.)
Качество: BDRip-AVC
Контейнер: MKV
Видео: 1024x554 at 23.976 fps, [email protected], ~2703 kbps avg
Аудио#1: 48 kHz, AC3 Dolby Digital, 2/0 (L,R) ch, ~192.00 kbps avg - Дохалов
Аудио#2: 48 kHz, AC3 Dolby Digital, 3/2 (L,C,R,l,r) + LFE ch, ~384 kbps avg - Живов

Знаете ли Вы, что:

  • Боб Лэйнир (Bob Lanier), легенда Детройт Пистонз (Detroit Pistons) и Миллуоки Бакс (Milwaukee Bucks) и член Зала Баскетбольной Славы был тренером по баскетболу во время съемок фильма. Его впечатлил уровень игры Снайпса и Харрельсона, которые вполне соответствует уровню студенческого баскетбола США.
  • Фриман Уильямс (Freeman Williams), который сыграл в фильме Дака Джонсона («Duck» Johnson) успешно играл в НБА. В течение 8 лет (1978-86) он выступал за Клипперс (LA Clippers), Джаз (Utah Jazz) и Буллетс (Washington Bullets).
  • В начале фильма на фоне эмблемы 20 Век Фокс (20th Century Fox) звучит хип-хоп версия музыкальной заставки студии.
  • По фильму существует компьютерная игра для приставки Атари Ягуар (Atari Jaguar).
  • Будущий член Зала Баскетбольной Славы НБА Гари Пэйтон (Gary Payton) появляется в фильме в массовке в роли баскетболиста.
  • Актер Кьюба Гудинг Мл. (Cuba Gooding Jr) появляется в фильме в толпе зрителей на матче.
  • В фильме Мела Брукса (Mel Brooks) «Робин Гуд: Мужчины в трико» есть эпизод с пародией на «Баскетбол — игра для черных», когда Робин Гуд пытается запрыгнуть на лошадь и падает, мавр Ачу смеётся: «Приятель, белые не умеют прыгать!»
  • Категория «Еда на букву Q» была использована в викторине Jeopardy! в октябре 1997 года.

x.264 log

x264 [info]: frame I:1198 Avg QP:17.15 size: 80342
x264 [info]: frame P:36774 Avg QP:19.76 size: 32726
x264 [info]: frame B:130115 Avg QP:21.14 size: 13220
0ptimus

Media Info

Формат : Matroska
Версия формата : Version 4 / Version 2
Размер файла : 3,28 Гбайт
Продолжительность : 1 ч. 56 м.
Общий поток : 4024 Кбит/сек
Название фильма : White Men Can't Jump [1992]
Дата кодирования : UTC 2014-03-18 07:59:08
Программа кодирования : mkvmerge v6.8.0 ('Theme for Great Cities') 32bit built on Mar 2 2014 21:27:07
Библиотека кодирования : libebml v1.3.0 + libmatroska v1.4.1
Видео
Идентификатор : 1
Формат : AVC
Формат/Информация : Advanced Video Codec
Профиль формата : [email protected]
Параметр CABAC формата : Да
Параметр ReFrames формата : 9 кадров
Идентификатор кодека : V_MPEG4/ISO/AVC
Продолжительность : 1 ч. 56 м.
Битрейт : 3448 Кбит/сек
Ширина : 1024 пикселя
Высота : 554 пикселя
Соотношение сторон : 1,85:1
Режим частоты кадров : Постоянный
Частота кадров : 23,976 кадра/сек
Цветовое пространство : YUV
Субдискретизация насыщенности : 4:2:0
Битовая глубина : 8 бит
Тип развёртки : Прогрессивная
Бит/(Пиксели*Кадры) : 0.254
Размер потока : 2,75 Гбайт (84%)
Библиотека кодирования : x264 core 129 r2230 1cffe9f
Настройки программы : cabac=1 / ref=9 / deblock=1:-3:-3 / analyse=0x3:0x113 / me=umh / subme=11 / psy=1 / psy_rd=1.00:0.20 / mixed_ref=1 / me_range=48 / chroma_me=1 / trellis=2 / 8x8dct=1 / cqm=0 / deadzone=21,11 / fast_pskip=0 / chroma_qp_offset=-3 / threads=4 / lookahead_threads=1 / sliced_threads=0 / nr=0 / decimate=0 / interlaced=0 / bluray_compat=0 / constrained_intra=0 / bframes=13 / b_pyramid=2 / b_adapt=2 / b_bias=0 / direct=3 / weightb=1 / open_gop=0 / weightp=2 / keyint=240 / keyint_min=23 / scenecut=40 / intra_refresh=0 / rc_lookahead=40 / rc=2pass / mbtree=0 / bitrate=3448 / ratetol=1.0 / qcomp=0.60 / qpmin=0 / qpmax=69 / qpstep=4 / cplxblur=20.0 / qblur=0.5 / vbv_maxrate=50000 / vbv_bufsize=50000 / nal_hrd=none / ip_ratio=1.40 / pb_ratio=1.30 / aq=1:1.00
Язык : English
Default : Да
Forced : Да
Аудио #1
Идентификатор : 2
Формат : AC-3
Формат/Информация : Audio Coding 3
Профиль формата : Dolby Digital
Расширение режима : CM (complete main)
Параметр Endianness формата : Big
Идентификатор кодека : A_AC3
Продолжительность : 1 ч. 56 м.
Вид битрейта : Постоянный
Битрейт : 192 Кбит/сек
Каналы : 2 канала
Расположение каналов : Front: L R
Частота : 48,0 КГц
Битовая глубина : 16 бит
Метод сжатия : С потерями
Размер потока : 160 Мбайт (5%)
Заголовок : Dohalov
Язык : Russian
Default : Да
Forced : Нет
Аудио #2
Идентификатор : 3
Формат : AC-3
Формат/Информация : Audio Coding 3
Расширение режима : CM (complete main)
Параметр Endianness формата : Big
Идентификатор кодека : A_AC3
Продолжительность : 1 ч. 56 м.
Вид битрейта : Постоянный
Битрейт : 384 Кбит/сек
Каналы : 6 каналов
Расположение каналов : Front: L C R, Side: L R, LFE
Частота : 48,0 КГц
Битовая глубина : 16 бит
Метод сжатия : С потерями
Размер потока : 321 Мбайт (10%)
Заголовок : Zhivov
Язык : Russian
Default : Нет
Forced : Нет
Текст
Идентификатор : 4
Формат : UTF-8
Идентификатор кодека : S_TEXT/UTF8
Идентификатор кодека/Информация : UTF-8 Plain Text
Язык : Russian
Default : Нет
Forced : Нет
Меню
00:00:00.000 : :Main Titles
00:04:34.816 : :Talkin' Trash
00:09:00.123 : :Who's the Chump?
00:19:00.681 : :About Business
00:24:25.464 : :Hustlin'
00:31:06.865 : :Finding a Weakness
00:36:15.006 : :Love's Fool
00:43:21.224 : :The Almighty Dollar
00:50:48.212 : :Ethics
00:58:04.189 : :In the Zone
01:04:55.266 : :Accepting the Award
01:10:32.562 : :White Men Can't Jump
01:14:12.156 : :Win Some, Lose Some
01:23:14.072 : :A Cross To Bear
01:28:26.676 : :Jeopardy
01:33:12.212 : :Gloria's Song
01:36:36.082 : :Promises
01:42:31.270 : :Every Dog Has His Day
01:47:32.738 : :Sometimes You Lose...
01:52:41.964 : :End Titles

Скриншоты

Яндекс.Метрика
Рейтинг@Mail.ru