Фанат (Владимир Феоктистов) [1989 г., боевик, криминал, TVRip]

 

Создавать темы 18-Мар-2014 22:05

-Фанат-- Производство: СССР, Творческое объединение «Ровесник»
Режиссер: Владимир Феоктистов
Жанр: боевик, криминал
Год выпуска: 1989 г.
Продолжительность: 01:18:10
В ролях: Юрий Горобец, Алексей Серебряков, Олег Кантемиров, Федор Сухов, Людмила Антонюк, Мария Селянская, Татьяна Лаврентьева, Мартиньш Вилсонс, Людмила Баранова, Александра Свенская-Описание: Непобедимый «Малыш» — фанат карате - полон светлых планов на будущее. Однако, после невольного соучастия в ограблении он только чудом вместо тюрьмы попадает в армию. Оттуда возвращается жестокий зверь, боец без тени жалости даже по отношению к друзьям. Теперь его жизнь — рэкет и подпольные бои без правил. Он - лучший всюду, но в предстоящем бою Малыш должен «лечь» — босс мафии по прозвищу Мэтр поставил огромные деньги на его противника...-Качество видео: TVRip
Контейнер: AVI
Видео кодек: XviD
Аудио кодек: MP3
Видео: 640x480; 842 kbps; 25 fps; 0.110 bit/pixel
Аудио: 48 kHz; 128.00 kbps; 2 ch
Cубтитры: отсутствуют

Media Info

Общее
Полное имя : E:\Torrent\Fanat.torrent.avi
Формат : AVI
Формат/Информация : Audio Video Interleave
Размер файла : 548 Мбайт
Продолжительность : 1 ч. 18 м.
Общий поток : 980 Кбит/сек
Программа кодирования : VirtualDubMod 1.5.10.2 (build 2540/release)
Библиотека кодирования : VirtualDub build 35390/release
Видео
Идентификатор : 0
Формат : MPEG-4 Visual
Профиль формата : Advanced [email protected]
Параметр BVOP формата : 1
Параметр QPel формата : Нет
Параметр GMC формата : Без точки перехода
Параметр матрицы формата : Default (MPEG)
Режим смешивания : Сжатый битовый поток
Идентификатор кодека : XVID
Идентификатор кодека/Подсказка : XviD
Продолжительность : 1 ч. 18 м.
Битрейт : 842 Кбит/сек
Ширина : 640 пикселей
Высота : 480 пикселей
Соотношение сторон : 4:3
Частота кадров : 25,000 кадров/сек
Цветовое пространство : YUV
Субдискретизация насыщенности : 4:2:0
Битовая глубина : 8 бит
Тип развёртки : Прогрессивная
Метод сжатия : С потерями
Бит/(Пиксели*Кадры) : 0.110
Размер потока : 471 Мбайт (86%)
Библиотека кодирования : XviD 1.2.1 (UTC 2008-12-04)
Аудио
Идентификатор : 1
Формат : MPEG Audio
Версия формата : Version 1
Профиль формата : Layer 3
Режим : Joint stereo
Расширение режима : MS Stereo
Идентификатор кодека : 55
Идентификатор кодека/Подсказка : MP3
Продолжительность : 1 ч. 18 м.
Вид битрейта : Постоянный
Битрейт : 128 Кбит/сек
Каналы : 2 канала
Частота : 48,0 КГц
Метод сжатия : С потерями
Размер потока : 71,6 Мбайт (13%)
Выравнивание : Соединение по промежуткам
Продолжительность промежутка : 40 мс. (1,00 видеокадр)
Время предзагрузки промежутка : 504 мс.
Библиотека кодирования : LAME3.98r
Настройки программы : -m j -V 4 -q 2 -lowpass 17 -b 128

Скриншоты

Яндекс.Метрика
Рейтинг@Mail.ru