[ Сегодня на трекере фрилич! Идет свободное скачивание без начисления Download ]

Битва за Рим / Kampf um Rom (Роберт Седмак/ Robert Siodmak) [1968 г., история, DVDRip] Dub

 

Создавать темы 18-Мар-2014 22:04

-Битва за Рим / Kampf um Rom-- Производство: Румыния, ФРГ, Италия
Год выпуска: 1968 г.
Жанр: история
Продолжительность: 1:24:23
Перевод: Профессиональный (полное дублирование)
Режиссер: Роберт Седмак/ Robert Siodmak-В ролях: Лоуренс Харви, Орсон Уэллс , Сильва Кошина , Хомор Блэкман , Роберт Хоффман-Описание: Действие картины начинается в конце IV века нашей эры, когда Римская империя распалась. В 476 году был низложен последний римский император Ромул Августус. Готы, завоевавшие Рим, и Византия - вот враги, которые поведут битву за Рим, надеясь подмять по себя древний город. За освобождение города от варваров после смерти короля вестготов Теодориха начинают бороться сами римляне...-
Качество видео: DVDRip
Контейнер: AVI
Видео кодек: XviD
Аудио кодек: MP3
Видео: 640x480; 1598Kbp; 25.00fps; 0.208 bit/pixel
Аудио: 48000Hz; 128 Kbps; 1 ch
Cубтитры: отсутствуют

Media Info

Общее
Полное имя : E:\Torrent\Bitva_za_Rim.torrent.avi
Формат : AVI
Формат/Информация : Audio Video Interleave
Размер файла : 1,03 Гбайт
Продолжительность : 1 ч. 24 м.
Общий поток : 1740 Кбит/сек
Видео
Идентификатор : 0
Формат : MPEG-4 Visual
Профиль формата : Advanced [email protected]
Параметр BVOP формата : 2
Параметр QPel формата : Нет
Параметр GMC формата : Без точки перехода
Параметр матрицы формата : Default (H.263)
Режим смешивания : Сжатый битовый поток
Идентификатор кодека : XVID
Идентификатор кодека/Подсказка : XviD
Продолжительность : 1 ч. 24 м.
Битрейт : 1598 Кбит/сек
Ширина : 640 пикселей
Высота : 480 пикселей
Соотношение сторон : 4:3
Частота кадров : 25,000 кадров/сек
Цветовое пространство : YUV
Субдискретизация насыщенности : 4:2:0
Битовая глубина : 8 бит
Тип развёртки : Прогрессивная
Метод сжатия : С потерями
Бит/(Пиксели*Кадры) : 0.208
Размер потока : 965 Мбайт (92%)
Библиотека кодирования : XviD 1.1.0 (UTC 2005-11-22)
Аудио
Идентификатор : 1
Формат : MPEG Audio
Версия формата : Version 1
Профиль формата : Layer 3
Идентификатор кодека : 55
Идентификатор кодека/Подсказка : MP3
Продолжительность : 1 ч. 24 м.
Вид битрейта : Постоянный
Битрейт : 128 Кбит/сек
Каналы : 1 канал
Частота : 48,0 КГц
Метод сжатия : С потерями
Задержка видео : 24 мс.
Размер потока : 77,3 Мбайт (7%)
Выравнивание : Разделение по промежуткам
Продолжительность промежутка : 24 мс. (0,60 видеокадр)

Скриншоты

Яндекс.Метрика
Рейтинг@Mail.ru