Моложе себя и не почувствуешь / As Young as You Feel (1951) DVD5

 

Создавать темы 18-Мар-2014 17:20

-Моложе себя и не почувствуешь / As Young as You Feel (1951) DVD5- Русское название: Моложе себя и не почувствуешь
Оригинальное название: As Young as You Feel
Год выпуска: 1951
Жанр: Комедия
Описание фильма:
65-летний Джон Ходжес отправлен в отставку. Воспользовавшись тем, что никто не знает в лицо президента вышестоящей компании, он приезжает на свой старый завод с инспекцией. Директор типографии Мак-Кинли, отправивший в отставку Ходжеса, нервничает так, что даже его красивая секретарша Гарриета не может успокоить его. Ситуация осложняется тем, что жена Мак-Кинли, Люсиль, увлечена Джоном Ходжесом...
Режиссер: Хэрмон Джонс
Актеры: Монти Вулли, Тельма Риттер, Дэвид Уэйн, Джин Питерс, Констанс Беннетт, Мэрилин Монро, Эллин Джослин, Альберт Деккер, Клинтон Сандберг, Майнор Уотсон
Продолжительность: 01:13:39
Перевод: Многоголосый закадровый (1-й канал)
Дата мировой премьеры: 15 июня 1951 года
Качество видео: DVD5
Видео: PAL 4:3 (768x576) VBR, ~5622 Кбит/сек, 25,00 кадр/сек
Аудио#1: Русский (Dolby AC3, 2/0ch, 192Kbps)
Аудио#2: Английский (Dolby AC3, 2/0ch, 192Kbps)
Субтитры: Русские, английские
Дополнительные материалы: Нет

Дополнительная информация

DVD скачен в сети. К оригинальной звуковой дорожке добавлен русский многоголосый профессиональный перевод 1-го телеканала и русские субтитры. Звуковое меню переделано с учетом выбора русского языка и субтитров. Меню статичное, озвученное.

DVDInfo

Title:
Size: 3.09 Gb ( 3 240 762 KBytes ) - DVD-5
Enabled regions: 1, 2, 3, 4, 5, 6, 7, 8
VTS_01 :
Play Length: 01:13:39
Video: PAL 4:3 (768x576) VBR
Audio:
Russian (Dolby AC3, 2 ch)
English (Dolby AC3, 2 ch)
Subtitles:
Russian
English

MediaInfo

Общее
Полное имя : F: As.Young.as.You.Feel.1951.DVD5_maroder1\VIDEO_TS\VTS_01_1.VOB
Формат : MPEG-PS
Размер файла : 1024 Мбайт
Продолжительность : 23 м.
Режим общего битрейта : Переменный
Общий поток : 6128 Кбит/сек
Видео
Идентификатор : 224 (0xE0)
Формат : MPEG Video
Версия формата : Version 2
Профиль формата : [email protected]
Параметр BVOP формата : Да
Параметр матрицы формата : Выборочная
Параметр GOP формата : M=3, N=15
Продолжительность : 23 м.
Вид битрейта : Переменный
Битрейт : 5622 Кбит/сек
Максимальный битрейт : 7500 Кбит/сек
Ширина : 768 пикселей
Высота : 576 пикселей
Соотношение сторон : 4:3
Частота кадров : 25,000 кадров/сек
Стандарт вещания : PAL
Цветовое пространство : YUV
Субдискретизация насыщенности : 4:2:0
Битовая глубина : 8 бит
Тип развёртки : Прогрессивная
Порядок развёртки : Верхнее поле первое
Метод сжатия : С потерями
Бит/(Пиксели*Кадры) : 0.542
Размер потока : 939 Мбайт (92%)
Аудио #1
Идентификатор : 189 (0xBD)-128 (0x80)
Формат : AC-3
Формат/Информация : Audio Coding 3
Расширение режима : CM (complete main)
Параметр Endianness формата : Big
Режим смешивания : DVD-Video
Продолжительность : 23 м.
Вид битрейта : Постоянный
Битрейт : 192 Кбит/сек
Каналы : 2 канала
Расположение каналов : Front: L R
Частота : 48,0 КГц
Битовая глубина : 16 бит
Метод сжатия : С потерями
Задержка видео : -80 мс.
Размер потока : 32,1 Мбайт (3%)
Аудио #2
Идентификатор : 189 (0xBD)-129 (0x81)
Формат : AC-3
Формат/Информация : Audio Coding 3
Расширение режима : CM (complete main)
Параметр Endianness формата : Big
Режим смешивания : DVD-Video
Продолжительность : 23 м.
Вид битрейта : Постоянный
Битрейт : 192 Кбит/сек
Каналы : 2 канала
Расположение каналов : Front: L R
Частота : 48,0 КГц
Битовая глубина : 16 бит
Метод сжатия : С потерями
Задержка видео : -80 мс.
Размер потока : 32,1 Мбайт (3%)
Текст #1
Идентификатор : 189 (0xBD)-32 (0x20)
Формат : RLE
Формат/Информация : Run-length encoding
Режим смешивания : DVD-Video
Текст #2
Идентификатор : 189 (0xBD)-33 (0x21)
Формат : RLE
Формат/Информация : Run-length encoding
Режим смешивания : DVD-Video
Меню

Скриншоты

Яндекс.Метрика
Рейтинг@Mail.ru