BBC: Мир природы. Атака муравьев / Natural World. Ant Attack (Нил Лукас / Neil Lucas) [2008 г., Документальный, природа, HDTVRip]

 

Создавать темы 11-Окт-2013 19:08

BBC: Мир природы. Атака муравьев / Natural World. Ant Attack
Год выпуска: 2008 г.
Страна: Великобритания
Жанр: Документальный, природа
Продолжительность: 00:42:48
Перевод: Профессиональный (двухголосый закадровый)
Cубтитры: нет
Режиссер: Нил Лукас / Neil Lucas
Описание: Поросшие тропическим лесом холмы на востоке Африки. Место сосуществования множества видов животных. Место идеального баланса между хищниками и добычей. Однако вскоре в этой части леса всё изменится. Здесь появился новый хищник. Самый жестокий убийца на планете вскоре разорит этот лес. И это не какое-то огромное страшное чудовище, а целая армия, - армия муравьев, составляющая самое крупное на планете семейство.
Где-то в глубине муравейника закончились запасы провизии, и королева отдаёт приказ немедленно пополнить их. И вот многочисленная армия, состоящая из муравьев-рабочих и муравьев-солдат, собирается в дорогу. Жертвами нашествия становятся не только одинокие насекомые, но и укреплённые бастионы - термитники. Несмотря на то, что термиты отлично вооружены и по силе превосходят муравьёв, голод поистине творит чудеса. И спустя какое-то время термитник становится пустым, а муравьи возвращаются с добычей к привычной жизни, продолжая расширять и укреплять стены своей колонии. До тех пор, пока королева снова не отдаст приказ.
Качество видео: HDTVRip
Формат видео: AVI
Видео кодек: XviD
Аудио кодек: AC3
Видео: 720x400 25.00fps 1800kbps
Аудио: AC3 2ch, 48kHz, 192 kbps

Скриншоты


"MediaInfo:"
Формат : AVI
Формат/Информация : Audio Video Interleave
Размер файла : 613 Мбайт
Продолжительность : 42 м.
Общий поток : 2002 Кбит/сек
Программа кодирования : VirtualDubMod 1.5.10.3 | www.virtualdub-fr.org || (build 2550/release)
Библиотека кодирования : VirtualDubMod build 2550/release
Видео
Идентификатор : 0
Формат : MPEG-4 Visual
Профиль формата : Advanced [email protected]
Параметр BVOP формата : 2
Параметр QPel формата : Нет
Параметр GMC формата : Без точки перехода
Параметр матрицы формата : Default (H.263)
Идентификатор кодека : XVID
Идентификатор кодека/Подсказка : XviD
Продолжительность : 42 м.
Битрейт : 1800 Кбит/сек
Ширина : 720 пикселей
Высота : 400 пикселей
Соотношение сторон : 16:9
Частота кадров : 25,000 кадров/сек
Цветовое пространство : YUV
Субдискретизация насыщенности : 4:2:0
Битовая глубина : 8 бит
Тип развёртки : Прогрессивная
Метод сжатия : С потерями
Бит/(Пиксели*Кадры) : 0.250
Размер потока : 551 Мбайт (90%)
Библиотека кодирования : XviD 1.2.1 (UTC 2008-12-04)
Аудио
Идентификатор : 1
Формат : AC-3
Формат/Информация : Audio Coding 3
Расширение режима : CM (complete main)
Параметр Endianness формата : Big
Идентификатор кодека : 2000
Продолжительность : 42 м.
Вид битрейта : Постоянный
Битрейт : 192 Кбит/сек
Каналы : 2 канала
Расположение каналов : Front: L R
Частота : 48,0 КГц
Битовая глубина : 16 бит
Метод сжатия : С потерями
Размер потока : 58,8 Мбайт (10%)
Выравнивание : Разделение по промежуткам
Продолжительность промежутка : 40 мс. (1,00 видеокадр)
Время предзагрузки промежутка : 500 мс.
Яндекс.Метрика
Рейтинг@Mail.ru