47 ронинов / 47 Ronin (Карл Ринш / Carl Rinsch) [2013 г., фэнтези, боевик, приключения, WEBDL-Rip] Dub [Звук с TS *PROPER*]

 

Создавать темы 17-Мар-2014 02:22

-47 ронинов / 47 Ronin-- Производство: США
Год выпуска: 2013 г.
Жанр: фэнтези, боевик, приключения
Продолжительность: 01:54:46
Мировая премьера: 6 декабря 2013
Российская премьера: 1 января 2014
Дата выхода DVD: 24 апреля 2014
Дата выхода Blu-Ray: 24 апреля 2014
Перевод: Профессиональный (полное дублирование) [звук с TS (PROPER - Полная озвучка!)]-Режиссер: Карл Ринш / Carl Rinsch
В ролях: Киану Ривз, Хироюки Санада, Ко Шибасаки, Таданобу Асано, Мин Танака, Джин Аканиши, Масаёси Ханеда, Хироси Согабэ, Такато Йонемото, Хироси Ямада-Описание:-Таинственный странник, преданный всеми, проданный в рабство, избранный судьбой вершить месть, станет одним из 47 воинов, бросивших вызов смерти. Явившись из другого мира, он восстанет против темных сил, чтобы защитить свою запретную любовь.-Качество видео: WEBDL-Rip
Контейнер: MKV
Видео кодек: XviD
Аудио кодек: MP3
Видео: mkv, XviD, 720x400, 1989 Кбит/сек, 23,976 кадров/сек, 0.228 Бит/Пиксели
Аудио: MP3, 128 Кбит/сек, 2 каналов, 48,0 КГц
Cубтитры: китайские
Формат субтитров: hardsub (неотключаемые)

Доп. информация

За исходник взят лучший на сегодня видео-рип [WEBRip 2100 МБ: (XviD, 2031 Кбит/с, 720x400]. Из-за отсутствия в нем 4 минут перевода в районе 27-й минуты и звука не лучшего качества, была наложена на него лучшая русская полная озвучка. Проверено на КМ плеере, VLC- медиа плеере и MPC.

Media Info

Общее
Уникальный идентификатор : 251783632679517474475328061397289247810 (0xBD6BC386538DC806B9CA01D591BDA442)
Полное имя : C:\Users\Admin\Desktop\47.Roninov.2013.D.WEBRip-AVC.mkv
Формат : Matroska
Версия формата : Version 2
Размер файла : 1,73 Гбайт
Продолжительность : 1 ч. 54 м.
Общий поток : 2160 Кбит/сек
Дата кодирования : UTC 2014-03-15 08:13:50
Программа кодирования : mkvmerge v4.9.1 ('Ich will') сборка от Jul 11 2011 23:53:15
Библиотека кодирования : libebml v1.2.1 + libmatroska v1.1.1
Видео
Идентификатор : 1
Формат : MPEG-4 Visual
Профиль формата : Advanced [email protected]
Параметр BVOP формата : Да
Параметр QPel формата : Нет
Параметр GMC формата : Без точки перехода
Параметр матрицы формата : Default (MPEG)
Идентификатор кодека : V_MS/VFW/FOURCC / XVID
Идентификатор кодека/Подсказка : XviD
Продолжительность : 1 ч. 54 м.
Битрейт : 1989 Кбит/сек
Ширина : 720 пикселей
Высота : 400 пикселей
Соотношение сторон : 16:9
Режим частоты кадров : Постоянный
Частота кадров : 23,976 кадра/сек
Цветовое пространство : YUV
Субдискретизация насыщенности : 4:2:0
Битовая глубина : 8 бит
Тип развёртки : Прогрессивная
Метод сжатия : С потерями
Бит/(Пиксели*Кадры) : 0.288
Размер потока : 1,59 Гбайт (92%)
Библиотека кодирования : XviD 1.2.1 (UTC 2008-12-04)
Default : Да
Forced : Нет
Аудио
Идентификатор : 2
Формат : MPEG Audio
Версия формата : Version 1
Профиль формата : Layer 3
Режим : Joint stereo
Расширение режима : MS Stereo
Режим смешивания : Header stripping
Идентификатор кодека : A_MPEG/L3
Идентификатор кодека/Подсказка : MP3
Продолжительность : 1 ч. 54 м.
Вид битрейта : Постоянный
Битрейт : 128 Кбит/сек
Каналы : 2 канала
Частота : 48,0 КГц
Метод сжатия : С потерями
Размер потока : 105 Мбайт (6%)
Default : Да
Forced : Нет

Скриншоты

Яндекс.Метрика
Рейтинг@Mail.ru