Нереальная любовь (2014) DVDRip | лицензия

 

Создавать темы 16-Мар-2014 16:30

«Все так хотят!»
Информация о фильме:
Название: Нереальная любовь
Оригинальное название: Нереальная любовь
Год выпуска: 2014
Жанр: комедия
Режиссер: Арман Геворгян-В ролях:
Игорь Верник, Егор Пазенко, Гоша Куценко, Егор Бероев, Волга Король, Герман Шпригов, Янина Студилина, Дмитрий Ендальцев, Олеся Пуховая, Юрий Базик, Анатолий Голуб, Сергей Журавель, Анна Щербинина, Анатолий Терпицкий, Оскар Кучера, Марина Александрова, Равшана Куркова, Фрида Геворгян, Сергей Новицкий, Катя Король-О фильме:
Мира и Ольга когда-то учились в одном классе, и спустя 10 лет случайно встречаются вновь. Светская львица решает наладить личную жизнь одноклассницы и помогает ей превратиться из наивной серой мышки в роковую красотку. Девушки отправляются в Сочи, где проходит бизнес — форум, в поисках единственного и неповторимого. Московские красотки без труда покоряют мужские сердца, попав в водоворот романтических приключений.-

Возраст: 12+-Выпущено: Россия / Dreamteam Media
Продолжительность: 01:19:50
Озвучивание: Оригинал [лицензия]-Файл:
Качество: DVDRip / DVD5 R5
Формат: AVI
Видео: 720x304 (2.35:1), 25.000 fps, XviD ~ 2154 kbps avg, 0.394 bit/pixel
Аудио: 48 kHz, Dolby AC3, 6 ch, 448 kbps, русский- -

MediaInfo

Общее
Полное имя : Nerealnaya.lyubov.2014.O.DVDRip_by_avproh.avi
Формат : AVI
Формат/Информация : Audio Video Interleave
Размер файла : 1,46 Гбайт
Продолжительность : 1 ч. 19 м.
Общий поток : 2612 Кбит/сек
Программа кодирования : VirtualDubMod 1.5.10.3 | www.virtualdub-fr.org || (build 2550/release)
Библиотека кодирования : VirtualDubMod build 2550/release
Видео
Идентификатор : 0
Формат : MPEG-4 Visual
Профиль формата : Advanced [email protected]
Параметр BVOP формата : 1
Параметр QPel формата : Нет
Параметр GMC формата : Без точки перехода
Параметр матрицы формата : Выборочная
Идентификатор кодека : XVID
Идентификатор кодека/Подсказка : XviD
Продолжительность : 1 ч. 19 м.
Битрейт : 2154 Кбит/сек
Ширина : 720 пикселей
Высота : 304 пикселя
Соотношение сторон : 2,35:1
Частота кадров : 25,000 кадров/сек
Цветовое пространство : YUV
Субдискретизация насыщенности : 4:2:0
Битовая глубина : 8 бит
Тип развёртки : Прогрессивная
Метод сжатия : С потерями
Бит/(Пиксели*Кадры) : 0.394
Размер потока : 1,20 Гбайт (82%)
Библиотека кодирования : XviD 73
Аудио
Идентификатор : 1
Формат : AC-3
Формат/Информация : Audio Coding 3
Расширение режима : CM (complete main)
Параметр Endianness формата : Big
Идентификатор кодека : 2000
Продолжительность : 1 ч. 19 м.
Вид битрейта : Постоянный
Битрейт : 448 Кбит/сек
Каналы : 6 каналов
Расположение каналов : Front: L C R, Side: L R, LFE
Частота : 48,0 КГц
Битовая глубина : 16 бит
Метод сжатия : С потерями
Размер потока : 256 Мбайт (17%)
Выравнивание : Разделение по промежуткам
Продолжительность промежутка : 40 мс. (1,00 видеокадр)
Время предзагрузки промежутка : 500 мс.

Скриншоты:

Яндекс.Метрика
Рейтинг@Mail.ru