[ Сегодня на трекере фрилич! Идет свободное скачивание без начисления Download ]

Гу-Га (Виллен Новак) [1989 г., военный, DVDRip]

 

Создавать темы 15-Мар-2014 14:33

-Гу-Га-- Производство: СССР, Одесская киностудия
Режиссер: Виллен Новак
Жанр: военный
Год выпуска: 1989 г.
Продолжительность: 02:06:23
В ролях: А.Волков, А.Толубеев, В.Сотникова, А.Горбунов, Н.Холошин, А.Калугин, К.Шафаренко, А.Соловьев, С.Скрипкин, С.Зияутдинов, А.Завьялов, А.Мухамедова, Н.Андросик, А.Голышев, П.Степанов, В.Носик, Т.Хвичиа-Описание: Фильм о судьбе трёх курсантов лётного училища, попавших в штрафной батальон.-Качество видео: DVDRip
Контейнер: AVI
Видео кодек: DivX
Аудио кодек: MP3
Видео: 640x496; 25.000 fps; 1411 kbps; 0.178 bits/pixel
Аудио: MPEG-1 Layer 3; 48000 Hz; 128 kbps; 2ch
Cубтитры: отсутствуют

Media Info

Общее
Полное имя : E:\Torrent\Gu-Gatorrent.avi
Формат : AVI
Формат/Информация : Audio Video Interleave
Размер файла : 1,37 Гбайт
Продолжительность : 2 ч. 6 м.
Общий поток : 1549 Кбит/сек
Программа кодирования : VirtualDubMod 1.5.10.2 (build 2540/release)
Библиотека кодирования : VirtualDubMod build 2540/release
Видео
Идентификатор : 0
Формат : MPEG-4 Visual
Параметр BVOP формата : 1
Параметр QPel формата : Нет
Параметр GMC формата : Без точки перехода
Параметр матрицы формата : Default (H.263)
Режим смешивания : Сжатый битовый поток
Идентификатор кодека : DX50
Идентификатор кодека/Подсказка : DivX 5
Продолжительность : 2 ч. 6 м.
Битрейт : 1411 Кбит/сек
Ширина : 640 пикселей
Высота : 496 пикселей
Соотношение сторон : 1,290
Частота кадров : 25,000 кадров/сек
Цветовое пространство : YUV
Субдискретизация насыщенности : 4:2:0
Битовая глубина : 8 бит
Тип развёртки : Прогрессивная
Метод сжатия : С потерями
Бит/(Пиксели*Кадры) : 0.178
Размер потока : 1,25 Гбайт (91%)
Библиотека кодирования : DivX 6.8.5 (UTC 2009-08-20)
Аудио
Идентификатор : 1
Формат : MPEG Audio
Версия формата : Version 1
Профиль формата : Layer 3
Режим : Joint stereo
Расширение режима : MS Stereo
Идентификатор кодека : 55
Идентификатор кодека/Подсказка : MP3
Продолжительность : 2 ч. 6 м.
Вид битрейта : Постоянный
Битрейт : 128 Кбит/сек
Каналы : 2 канала
Частота : 48,0 КГц
Метод сжатия : С потерями
Размер потока : 116 Мбайт (8%)
Выравнивание : Соединение по промежуткам
Продолжительность промежутка : 40 мс. (1,00 видеокадр)
Время предзагрузки промежутка : 504 мс.

Скриншоты

Яндекс.Метрика
Рейтинг@Mail.ru