[ Сегодня на трекере фрилич! Идет свободное скачивание без начисления Download ]

Изобретение лжи / The Invention of Lying (Рики Джервэйс / Ricky Gervais, Мэттью Робинсон / Matthew Robinson) [2009 г., фэнтези, драма, мелодрама, комедия, HDRip] Dub

 

Создавать темы 15-Мар-2014 04:46

-Изобретение лжи / The Invention of Lying-«Этот парень всего лишь изобрел ложь!»- Производство: США
Год выпуска: 2009 г.
Жанр: фэнтези, драма, мелодрама, комедия
Продолжительность: 01:39:43
Мировая премьера: 14 сентября 2009
Дата выхода DVD: 28 сентября 2010
Перевод: Профессиональный (полное дублирование)-Режиссер: Рики Джервэйс / Ricky Gervais, Мэттью Робинсон / Matthew Robinson
В ролях: Рики Джервэйс, Дженнифер Гарнер, Джона Хилл, Луис С.К., Джефри Тэмбор, Фионнула Флэнаган, Роб Лоу, Тина Фей, Донна Сорбелло, Стефани Марч, Джейсон Бейтман-Описание:-Главный герой Марк живет в мире, где все говорят правду и только правду, здесь не существует лжи. Сам же он толстый неудачник, которого вот-вот уволят с работы. После чего его домовладелец дает ему 1 день, чтобы найти деньги на оплату жилья. Марк решается снять свои последние 300 долларов со счета, но вдруг что-то происходит в его голове, и в банке он, соврав, говорит что хочет снять 800 долларов, и ему их выдают. После чего Марк потихоньку начинает понимать все и начинает пользоваться этим чтобы сделать свою жизнь и жизнь людей лучше…-Качество видео: HDRip
Контейнер: AVI
Видео кодек: XviD
Аудио кодек: AC3
Видео: AVI, XviD, 720x384, 1565 Кбит/сек, 23,976 кадров/сек, 0.24 Бит/Пиксели
Аудио: AC3, 384 Кбит/сек, 6 каналов, 48,0 КГц
Cубтитры: отсутствуют

Media Info

Общее
Полное имя : C:\Users\Admin\Desktop\Izobretenie.lzhi.2009.D.HDRip.avi
Формат : AVI
Формат/Информация : Audio Video Interleave
Размер файла : 1,36 Гбайт
Продолжительность : 1 ч. 39 м.
Общий поток : 1959 Кбит/сек
Программа кодирования : VirtualDubMod 1.5.4.1 (build 2178/release)
Библиотека кодирования : VirtualDubMod build 2178/release
Видео
Идентификатор : 0
Формат : MPEG-4 Visual
Профиль формата : Advanced [email protected]
Параметр BVOP формата : 3
Параметр QPel формата : Нет
Параметр GMC формата : Без точки перехода
Параметр матрицы формата : Выборочная
Идентификатор кодека : XVID
Идентификатор кодека/Подсказка : XviD
Продолжительность : 1 ч. 39 м.
Продолжительность оригинала : 1 ч. 13 м.
Битрейт : 1625 Кбит/сек
Ширина : 720 пикселей
Высота : 384 пикселя
Соотношение сторон : 1,85:1
Частота кадров : 23,976 кадра/сек
Цветовое пространство : YUV
Субдискретизация насыщенности : 4:2:0
Битовая глубина : 8 бит
Тип развёртки : Прогрессивная
Метод сжатия : С потерями
Бит/(Пиксели*Кадры) : 0.245
Размер потока : 855 Мбайт (61%)
Библиотека кодирования : XviD 1.2.1 (UTC 2008-12-04)
Аудио
Идентификатор : 1
Формат : AC-3
Формат/Информация : Audio Coding 3
Расширение режима : CM (complete main)
Параметр Endianness формата : Big
Идентификатор кодека : 2000
Продолжительность : 1 ч. 39 м.
Продолжительность оригинала : 1 ч. 13 м.
Вид битрейта : Постоянный
Битрейт : 384 Кбит/сек
Каналы : 6 каналов
Расположение каналов : Front: L C R, Side: L R, LFE
Частота : 48,0 КГц
Битовая глубина : 16 бит
Метод сжатия : С потерями
Задержка видео : 28 мс.
Размер потока : 202 Мбайт (14%)
Выравнивание : Разделение по промежуткам
Продолжительность промежутка : 42 мс. (1,00 видеокадр)
Время предзагрузки промежутка : 500 мс.

Скриншоты

Яндекс.Метрика
Рейтинг@Mail.ru