Уцелевший / Lone Survivor (Питер Берг / Peter Berg) [2013, боевик, триллер, драма, военный, WEB-DLRip] Dub [iTunes]

 

Создавать темы 15-Мар-2014 04:33

Уцелевший / Lone Survivor- Год выпуска: 2013
Жанр: боевик, триллер, драма, военный
Выпущено: США / Emmett/Furla Films, Envision Entertainment, Film 44
Продолжительность: 02:01:47
Перевод: Профессиональный (полное дублирование) [iTunes]
Субтитры: -
Язык субтитров: --В ролях: Марк Уолберг, Тейлор Китч, Эмиль Хирш, Бен Фостер, Юсуф Азами, Али Сулиман, Эрик Бана, Александр Людвиг, Рич Тинг, Дэн Билзериан-Режиссер: Питер Берг / Peter Berg-Рейтинг на IMDB: ~7.8/10
Рейтинг на Кинопоиск.RU: ~7.38-О фильме: Афганистан, 2005 год. Команда американских спецназовцев получает задание обезвредить известного лидера талибов Ахмада Шаха. Попав в ловушку, солдаты принимают неравный кровопролитный бой, и все они погибают героями. Все, кроме одного. Для уцелевшего Маркуса Латтрела бой только начинается: он любой ценой должен выжить и пробраться к «своим». Когда почти всё потеряно, ему решается помочь Гулаб — мирный человек, ненавидящий войну.-Качество: WEB-DLRip
Формат: AVI
Видео кодек: Xvid
Аудио кодек: AC3
Видео: 720x304 / 23,976 fps / 1222 kb/s / 0.221 Bits/Pixel*Frame
Аудио #1: 384 kb/s / 6 ch / 48 kHz--

MI

General
Complete name                            : C:\Documents and Settings\Admin\Рабочий стол\MediaCenter\Фильмы\Utselevshiy.2013.D.WEB-DLRip.1400Mb.avi
Format                                   : AVI
Format/Info                              : Audio Video Interleave
File size                                : 1.37 GiB
Duration                                 : 2h 1mn
Overall bit rate                         : 1 616 Kbps
Writing application                      : VirtualDubMod 1.5.10.2 (build 2540/release)
Writing library                          : VirtualDubMod build 2540/release
Video
ID                                       : 0
Format                                   : MPEG-4 Visual
Format profile                           : Advanced [email protected]
Format settings, BVOP                    : 2
Format settings, QPel                    : No
Format settings, GMC                     : No warppoints
Format settings, Matrix                  : Custom
Codec ID                                 : XVID
Codec ID/Hint                            : XviD
Duration                                 : 2h 1mn
Bit rate                                 : 1 159 Kbps
Width                                    : 720 pixels
Height                                   : 304 pixels
Display aspect ratio                     : 2.35:1
Frame rate                               : 24.000 fps
Color space                              : YUV
Chroma subsampling                       : 4:2:0
Bit depth                                : 8 bits
Scan type                                : Progressive
Compression mode                         : Lossy
Bits/(Pixel*Frame)                       : 0.221
Stream size                              : 1 005 MiB (72%)
Writing library                          : XviD 1.2.1 (UTC 2008-12-04)
Audio
ID                                       : 1
Format                                   : AC-3
Format/Info                              : Audio Coding 3
Mode extension                           : CM (complete main)
Format settings, Endianness              : Big
Codec ID                                 : 2000
Duration                                 : 2h 1mn
Bit rate mode                            : Constant
Bit rate                                 : 384 Kbps
Channel(s)                               : 6 channels
Channel positions                        : Front: L C R, Side: L R, LFE
Sampling rate                            : 48.0 KHz
Bit depth                                : 16 bits
Compression mode                         : Lossy
Stream size                              : 333 MiB (24%)
Alignment                                : Split accross interleaves
Яндекс.Метрика
Рейтинг@Mail.ru