Соучастники (Инна Туманян) [1983 г., драма, криминал, DVD5, PAL]

 

Создавать темы 14-Мар-2014 08:59

-Соучастники-- Производство: Киностудия имени М.Горького, СССР
Режиссер: Инна Туманян
Жанр: драма, криминал
Год выпуска: 1983 г.
Продолжительность: 01:34:09
Российская премьера: 1 сентября 1984
Мировая премьера: 8 октября 1987 года, Венгрия.
Дата выхода DVD: 03 февраля 2006 года. ООО "Гранд Рекордс".
В ролях: Леонид Филатов, Сергей Колтаков, Наталья Вилькина, Владимир Качан, Галина Морачева, Владимир Стеклов, Александр Феклистов, Яна Друзь, А. Кузнецов-Описание: Анатолий кочевал по тюрьмам с юношеских лет и, отсидев девять лет, решил сделать признание следователю Хлебникову в том, что десять лет назад он в компании с другими подростками совершил убийство во время драки.
Но за эти годы судьбы людей разошлись, и все члены уличной компании стали нормальными членами общества. Закон требует наказания, но не сломает ли оно возможное будущее этих людей и членов их семей?
Когда Анатолий вышел из тюрьмы, то встретился с Хлебниковым, испытывая естественную тягу к человеку, который по-человечески проявил участие в его судьбе, а главное — поверил. Вчерашнему зэку, у которого не было опыта своей взрослой вольной жизни, пришлось адаптироваться к жизни на свободе.
Но не все оказалось под силу Анатолию, и следователь вновь и вновь выручал своего подопечного из беды, чтобы тот не вернулся в зону…-КиноПоиск
Качество видео: DVD5
Контейнер: DVD Video
Видео кодек: MPEG2
Аудио кодек: AC3
Видео: PAL 4:3 (720x576) VBR. Битрейт: 4994 Кбит/сек. Частота кадров: 25,000 кадров/сек
Формат DVD: PAL
Аудио: AC3, 2/0 ch, 192Kbps, Delay 0 mSec. Частота: 48,0 КГц
Cубтитры: отсутствуют

Доп. информация

Сценарий Александр Шпеер, Инна Туманян; оператор Валерий Гинзбург; композитор Евгений Геворгян; художник Виктор Сафронов; монтаж Лидия Жучкова.

Рецензия

Замечательно поставленный фильм Инны Туманян, блестящие актерские работы Ледонида Филатова, Сергея Колтакова и Натальи Вилькиной. Можно сказать, что картина в целом была недооценена зрителем, но ее довольно часто показывают по телевидению.
Очень интересно показаны советские судебная и уголовно-исполнительная системы. Здесь мы не увидим судебные процессы и следствие, но есть ощущение, что зритель переживает все стадии через которые проходят герои. Очень четко проработана глубина характеров и драматизм, с которым развивается сюжет.
Во многих голливудских фильмах схожей тематики угадываются заимствования из «Соучастников». Достаточно взглянуть на сцены допроса свидетелей. Очень похожие кадры и диалоги можно увидеть в бесчетных американских судебных драмах или детективах. Конечно, остается только предполагать, является ли это совпадением или нет. На тот момент в США было снято довольно много подобных картин.

Media Info

Общее
Полное имя : D:\Films\Souchastniki\VTS_01_1.VOB
Формат : MPEG-PS
Размер файла : 1024 Мбайт
Продолжительность : 27 м.
Режим общего битрейта : Переменный
Общий поток : 5291 Кбит/сек
Видео
Идентификатор : 224 (0xE0)
Формат : MPEG Video
Версия формата : Version 2
Профиль формата : [email protected]
Параметр BVOP формата : Да
Параметр матрицы формата : Выборочная
Параметр GOP формата : Variable
Продолжительность : 27 м.
Вид битрейта : Переменный
Битрейт : 4994 Кбит/сек
Максимальный битрейт : 8000 Кбит/сек
Ширина : 720 пикселей
Высота : 576 пикселей
Соотношение сторон : 4:3
Частота кадров : 25,000 кадров/сек
Стандарт вещания : PAL
Цветовое пространство : YUV
Субдискретизация насыщенности : 4:2:0
Битовая глубина : 8 бит
Тип развёртки : Чересстрочная
Порядок развёртки : Верхнее поле первое
Метод сжатия : С потерями
Бит/(Пиксели*Кадры) : 0.482
Временной код первого кадра : 00:00:00:00
Оригинал временного кода : Group of pictures header
Размер потока : 966 Мбайт (94%)
Аудио
Идентификатор : 189 (0xBD)-128 (0x80)
Формат : AC-3
Формат/Информация : Audio Coding 3
Расширение режима : CM (complete main)
Параметр Endianness формата : Big
Режим смешивания : DVD-Video
Продолжительность : 27 м.
Вид битрейта : Постоянный
Битрейт : 192 Кбит/сек
Каналы : 2 канала
Расположение каналов : Front: L R
Частота : 48,0 КГц
Битовая глубина : 16 бит
Метод сжатия : С потерями
Размер потока : 37,1 Мбайт (4%)
Меню

Скриншот меню

Скриншоты

Диск

Обложка

DVDInfo

Title: Souchastniki
Size: 4.08 Gb ( 4 279 818 KBytes ) - DVD-5
Enabled regions: 1, 2, 3, 4, 5, 6, 7, 8
VTS_01 :
Play Length: 00:00:06+01:34:09
Video: PAL 4:3 (720x576) VBR
Audio: Russian (Dolby AC3, 2 ch)
Menu Video:
NTSC 4:3 (720x480) VBR
Auto Pan&Scan, Auto Letterboxed
Menu Language Unit :
Chapter (PTT) Menu
Root Menu
Яндекс.Метрика
Рейтинг@Mail.ru