[ Сегодня на трекере фрилич! Идет свободное скачивание без начисления Download ]

Легенда о Динозавре / Kyoryuu: Kaicho no densetsu (Джунджи Курато / Junji Kurata) [1977 г., ужасы, DVDRip] VO

 

Создавать темы 14-Мар-2014 08:53

-Легенда о Динозавре / Kyoryuu: Kaicho no densetsu- Производство: Япония
Год выпуска: 1977 г.
Жанр: ужасы
Продолжительность: 1:32:19
Перевод: Любительский (одноголосый, закадровый)
Режиссер: Джунджи Курато / Junji Kurata-В ролях: Цунехико Ватасе /Tsunehiko Watase/, Нобико Савва /Nobiko Sawa/, Сетаро Хаяси /Shôtarô Hayashi/, Томоко Киесима /Tomoko Kiyoshima/, Фуюкити Маки /Fuyukichi Maki/-Описание: Лето 1977 года. В расщелине у подножия горы Фудзияма найдены окаменевшие яйца динозавров. Миллионы лет пролежали они без движения, но природные катаклизмы пробудили их от спячки. И началось… Исчезают люди, на дорогах находят обезглавленных животных. Начинают оживать все новые и новые твари. Кто или что сможет остановить кровавую вакханалию?
Качество видео: DVDRip
Контейнер: AVI
Видео кодек: XviD
Аудио кодек: MP3
Видео: 608x256; 23.976 fps; 931 Кбит/с; XviD 0.248 bit/pixel
Аудио: 48kHz; 2ch; mp3, 128 kbit/s
Cубтитры: отсутствуют

Media Info

Общее
Полное имя : E:\Torrent\Legenda_o_dinozavre_[Pirat.ca].torrent.avi
Формат : AVI
Формат/Информация : Audio Video Interleave
Размер файла : 700 Мбайт
Продолжительность : 1 ч. 32 м.
Общий поток : 1059 Кбит/сек
Программа кодирования : VirtualDubMod 1.5.4.1 (build 2178/release)
Библиотека кодирования : VirtualDubMod build 2178/release
Видео
Идентификатор : 0
Формат : MPEG-4 Visual
Профиль формата : Advanced [email protected]
Параметр BVOP формата : 1
Параметр QPel формата : Нет
Параметр GMC формата : Без точки перехода
Параметр матрицы формата : Выборочная
Идентификатор кодека : XVID
Идентификатор кодека/Подсказка : XviD
Продолжительность : 1 ч. 32 м.
Битрейт : 924 Кбит/сек
Ширина : 608 пикселей
Высота : 256 пикселей
Соотношение сторон : 2,40:1
Частота кадров : 23,976 кадра/сек
Цветовое пространство : YUV
Субдискретизация насыщенности : 4:2:0
Битовая глубина : 8 бит
Тип развёртки : Прогрессивная
Метод сжатия : С потерями
Бит/(Пиксели*Кадры) : 0.248
Размер потока : 610 Мбайт (87%)
Библиотека кодирования : XviD 1.1.0 (UTC 2005-11-22)
Аудио
Идентификатор : 1
Формат : MPEG Audio
Версия формата : Version 1
Профиль формата : Layer 3
Режим : Joint stereo
Расширение режима : MS Stereo
Идентификатор кодека : 55
Идентификатор кодека/Подсказка : MP3
Продолжительность : 1 ч. 32 м.
Вид битрейта : Постоянный
Битрейт : 128 Кбит/сек
Каналы : 2 канала
Частота : 48,0 КГц
Метод сжатия : С потерями
Размер потока : 84,5 Мбайт (12%)
Выравнивание : Соединение по промежуткам
Продолжительность промежутка : 83 мс. (2,00 видеокадра)
Время предзагрузки промежутка : 504 мс.
Библиотека кодирования : LAME3.97b
Настройки программы : -m j -V 4 -q 2 -lowpass 17 -b 128
Язык : Russian

Скриншоты

Яндекс.Метрика
Рейтинг@Mail.ru