Отец-молодец / Delivery Man (Кен Скотт / Ken Scott) [2013 г., комедия, драма, BDRip-AVC] Dub [iTunes] + Original (Eng) [Jolly Roger]

 

Создавать темы 14-Мар-2014 02:28

-Отец-молодец / Delivery Man- Год выпуска: 2013 г.
Производство: США
Жанр: комедия, драма
Продолжительность: 01:44:47
Перевод: Профессиональный (полное дублирование) [iTunes]
Оригинальный аудиопоток: английский
Режиссер: Кен Скотт / Ken Scott
В ролях: Винс Вон, Крис Прэтт, Коби Смолдерс, Анджей Блюменфельд, Саймон Делани, Бобби Мойнахан, Дэйв Паттен, Адам Чанлер-Берат, Бритт Робертсон, Джек Рейнор
Описание: Жизнь бруклинского работяги Дэвида Возняка не похожа на праздник: у него кризис среднего возраста, он должен денег подпольному ростовщику, девушка собирается его бросить, а родной отец грозит увольнением с работы. А в довершение всех бед к нему приходит адвокат с известием о том, что в результате ошибки, которую двадцать лет назад совершили в банке спермы, который Дэвид посещал в студенческие годы, он является биологическим отцом 533 детей. И 142 из них обратились в суд с требованием раскрыть имя своего родителя. Вначале Дэвид не знает, что делать в такой ситуации, но постепенно любопытство перевешивает, и он решает — инкогнито — узнать поближе хотя бы некоторых из своих нежданных потомков…Качество видео: BDRip-AVC
Контейнер: MKV
Видео кодек: H.264
Аудио кодек: AC3
Видео: MPEG4 Video (H264) 1040x432 23.976fps 1335 Kbps
Аудио 1: Dolby AC3 48000Hz 6ch 384 Kbps / Русский
Аудио 2: Dolby AC3 48000Hz 2ch 192 Kbps / Английский

Media Info / x.264

Log 2-nd pass

x264 [info]: using SAR=1/1
x264 [info]: using cpu capabilities: MMX2 SSE2Fast SSSE3 Cache64 SlowShuffle
x264 [info]: profile High, level 4.1
x264 [info]: frame I:1308 Avg QP:13.76 size: 76717
x264 [info]: frame P:29728 Avg QP:17.19 size: 19857
x264 [info]: frame B:119708 Avg QP:21.81 size: 2993
x264 [info]: consecutive B-frames: 1.8% 1.8% 5.6% 15.1% 15.9% 35.8% 11.3% 5.6% 6.9%
x264 [info]: mb I I16..4: 16.9% 33.2% 49.9%
x264 [info]: mb P I16..4: 3.2% 6.7% 2.7% P16..4: 40.9% 17.8% 14.2% 1.5% 0.4% skip:12.6%
x264 [info]: mb B I16..4: 0.3% 0.6% 0.2% B16..8: 29.7% 6.9% 1.4% direct: 2.0% skip:58.9% L0:46.8% L1:37.2% BI:16.0%
x264 [info]: 8x8 transform intra:49.6% inter:43.0%
x264 [info]: direct mvs spatial:97.8% temporal:2.2%
x264 [info]: coded y,uvDC,uvAC intra: 66.6% 59.8% 35.4% inter: 12.3% 6.3% 1.5%
x264 [info]: i16 v,h,dc,p: 35% 18% 21% 26%
x264 [info]: i8 v,h,dc,ddl,ddr,vr,hd,vl,hu: 27% 17% 20% 4% 6% 7% 6% 7% 6%
x264 [info]: i4 v,h,dc,ddl,ddr,vr,hd,vl,hu: 27% 15% 20% 5% 7% 8% 6% 6% 6%
x264 [info]: i8c dc,h,v,p: 32% 29% 24% 14%
x264 [info]: Weighted P-Frames: Y:2.2% UV:0.6%
x264 [info]: ref P L0: 43.5% 9.6% 20.6% 8.1% 7.3% 5.0% 5.7% 0.3% 0.0%
x264 [info]: ref B L0: 67.0% 15.7% 9.0% 5.2% 2.3% 0.9%
x264 [info]: ref B L1: 90.6% 9.4%
x264 [info]: kb/s:1334.75
x264 [total]: encoded 150744 frames, 3.16 fps, 1334.75 kb/s
General
Unique ID : 207204096907629061804251563712954293879 (0x9BE20EB73B9D83C695312DA38434DE77)
Complete name : G:\Otec.molodec.2013.H.264.BDRip-AVC.JRG.mkv
Format : Matroska
Format version : Version 4 / Version 2
File size : 1.40 GiB
Duration : 1h 44mn
Overall bit rate : 1 910 Kbps
Movie name : The Jolly Roger Release Group by
Encoded date : UTC 2014-03-13 16:21:53
Writing application : mkvmerge v6.6.0 ('The Edge Of The In Between') built on Dec 1 2013 17:55:00
Writing library : libebml v1.3.0 + libmatroska v1.4.1
Video
ID : 1
Format : AVC
Format/Info : Advanced Video Codec
Format profile : [email protected]
Format settings, CABAC : Yes
Format settings, ReFrames : 7 frames
Codec ID : V_MPEG4/ISO/AVC
Duration : 1h 44mn
Bit rate : 1 335 Kbps
Width : 1 040 pixels
Height : 432 pixels
Display aspect ratio : 2.40:1
Frame rate mode : Constant
Frame rate : 23.976 fps
Color space : YUV
Chroma subsampling : 4:2:0
Bit depth : 8 bits
Scan type : Progressive
Bits/(Pixel*Frame) : 0.124
Stream size : 973 MiB (68%)
Writing library : x264 core 130 r2273 b3065e6
Encoding settings : cabac=1 / ref=7 / deblock=1:0:0 / analyse=0x3:0x133 / me=umh / subme=10 / psy=0 / mixed_ref=1 / me_range=24 / chroma_me=1 / trellis=2 / 8x8dct=1 / cqm=0 / deadzone=21,11 / fast_pskip=0 / chroma_qp_offset=0 / threads=3 / lookahead_threads=1 / sliced_threads=0 / nr=0 / decimate=1 / interlaced=0 / bluray_compat=0 / constrained_intra=0 / bframes=8 / b_pyramid=2 / b_adapt=2 / b_bias=0 / direct=3 / weightb=1 / open_gop=0 / weightp=2 / keyint=250 / keyint_min=23 / scenecut=40 / intra_refresh=0 / rc_lookahead=50 / rc=2pass / mbtree=1 / bitrate=1335 / ratetol=1.0 / qcomp=0.60 / qpmin=0 / qpmax=69 / qpstep=4 / cplxblur=20.0 / qblur=0.5 / ip_ratio=1.40 / aq=1:1.00
Default : Yes
Forced : No
Audio #1
ID : 2
Format : AC-3
Format/Info : Audio Coding 3
Mode extension : CM (complete main)
Format settings, Endianness : Big
Codec ID : A_AC3
Duration : 1h 44mn
Bit rate mode : Constant
Bit rate : 384 Kbps
Channel(s) : 6 channels
Channel positions : Front: L C R, Side: L R, LFE
Sampling rate : 48.0 KHz
Bit depth : 16 bits
Compression mode : Lossy
Stream size : 288 MiB (20%)
Language : Russian
Default : Yes
Forced : No
Audio #2
ID : 3
Format : AC-3
Format/Info : Audio Coding 3
Mode extension : CM (complete main)
Format settings, Endianness : Big
Codec ID : A_AC3
Duration : 1h 44mn
Bit rate mode : Constant
Bit rate : 192 Kbps
Channel(s) : 2 channels
Channel positions : Front: L R
Sampling rate : 48.0 KHz
Bit depth : 16 bits
Compression mode : Lossy
Stream size : 144 MiB (10%)
Language : English
Default : No
Forced : No

Скриншоты

Яндекс.Метрика
Рейтинг@Mail.ru