Ведьмы из Сугаррамурди / Las brujas de Zugarramurdi (2013) HDRip | Лицензия

 

Создавать темы 13-Мар-2014 17:58

«Расслабься, ты заколдован»
Информация о фильме:
Название: Ведьмы из Сугаррамурди
Оригинальное название: Las brujas de Zugarramurdi
Год выхода: 2013
Жанр: ужасы, драма, комедия
Режиссер: Алекс де ла Иглесиа-В ролях:
Марио Касас, Уго Силва, Хавьер Ботет, Сантьяго Сегура, Каролина Банг, Кармен Маура, Карлос Аресес, Секун де ла Роса, Макарена Гомес, Пепон Ниэто-О фильме:
Трое незадачливых воришек попадают в заколдованный город, где на протяжении веков правят бал коварные ведьмы. Задача героев проста — унести ноги из страшного места. Для этого надо постараться не влюбиться в обитательниц этого гиблого места… Сюжет основан на подлинной истории, которая случилась здесь в начале XVII века, когда одна из жительниц деревни заявила, что она ведьма и регулярно участвует в шабашах в близлежащих пещерах со своими соседками. Тогда Святая Инквизиция арестовала почти всё население Сугаррамурди и окрестных сёл (около 300 человек), устроив суд по делу «Ведьминской деревни», который длился два года. В результате в 1610 году 40 жителей деревни были обвинены в колдовстве, а 11 из них — сожжены на костре. С тех пор Сугаррамурди запечатлелся в коллективной памяти как обиталище ведьм.-

Возраст: 16+-Выпущено: Испания, Франция / Enrique Cerezo Producciones Cinematográficas S.A., La Ferme! Productions, arte France Cinéma
Продолжительность: 01:54:03
Озвучивание: Дублированное [лицензия]-Файл:
Качество видео: HDRip [Исходник BDRip 720p]
Формат видео: AVI
Видео кодек: XviD
Аудио кодек: AC3
Видео: 720x304 (2.37:1), 23.976 fps, XviD build 73 ~1437 kbps avg, 0.27 bit/pixel
Аудио: 48 kHz, AC3 Dolby Digital, 3/2 (L,C,R,l,r) + LFE ch, ~384 kbps- -

Скриншоты

Резервные скриншоты

MI

D:Мои рипыVedmy.iz.Sugarramurdi.2013.hdrip.dexter_lex.avi
General
Complete name : D:Мои рипыVedmy.iz.Sugarramurdi.2013.hdrip.dexter_lex.avi
Format : AVI
Format/Info : Audio Video Interleave
File size : 1.46 GiB
Duration : 1h 54mn
Overall bit rate : 1 831 Kbps
Writing application : VirtualDubMod 1.5.10.3 | www.virtualdub-fr.org || (build 2550/release)
Writing library : VirtualDubMod build 2550/release
Video #0
ID : 0
Format : MPEG-4 Visual
Format profile : Advanced [email protected]
Format settings, BVOP : 1
Format settings, QPel : No
Format settings, GMC : No warppoints
Format settings, Matrix : Custom
Codec ID : XVID
Codec ID/Hint : XviD
Duration : 1h 54mn
Bit rate : 1 438 Kbps
Width : 720 pixels
Height : 304 pixels
Display aspect ratio : 2.35:1
Frame rate : 23.976 fps
Color space : YUV
Chroma subsampling : 4:2:0
Bit depth : 8 bits
Scan type : Progressive
Compression mode : Lossy
Bits/(Pixel*Frame) : 0.274
Stream size : 1.15 GiB (79%)
Writing library : XviD 73
Audio #1
ID : 1
Format : AC-3
Format/Info : Audio Coding 3
Mode extension : CM (complete main)
Codec ID : 2000
Duration : 1h 54mn
Bit rate mode : Constant
Bit rate : 384 Kbps
Channel(s) : 6 channels
Channel positions : Front: L C R, Side: L R, LFE
Sampling rate : 48.0 KHz
Bit depth : 16 bits
Compression mode : Lossy
Stream size : 313 MiB (21%)
Alignment : Split accross interleaves
Interleave, duration : 42 ms (1.00 video frame)
Interleave, preload duration : 500 ms
Яндекс.Метрика
Рейтинг@Mail.ru