[ Сегодня на трекере фрилич! Идет свободное скачивание без начисления Download ]

Покидая Лас-Вегас / Leaving Las Vegas (Майк Фиггис / Mike Figgis) [1995 г., драма, мелодрама, DVD R5, PAL] MVO + Original (Eng)

 

Создавать темы 13-Мар-2014 02:51

-Покидая Лас-Вегас / Leaving Las Vegas-- Производство: США. Производство CANAL+
Год выпуска: 1995 г.
Жанр: драма, мелодрама
Продолжительность: 1:47:05
Мировая премьера: 15 сентября 1995
Дата выхода DVD: 25 апреля 2002
Перевод: Профессиональный (многоголосый, закадровый)
Оригинальный аудиопоток: английский
Режиссер: Майк Фиггис / Mike Figgis-В ролях: Николас Кейдж, Элизабет Шу, Джулиан Сэндс, Ричард Льюис, Стивен Вебер, Ким Адамс, Эмили Проктер, Стюарт Реген, Валерия Голино,
Грэхэм Бекел-Описание: Если вся жизнь кажется кошмаром. Если затяжной запой окончательно разрушил карьеру в серьезной фирме. Может быть, есть смысл уничтожить все, что связывало тебя с прошлой жизнью и начать новую? В блестящем и грешном Лас-Вегасе.
Где среди блеска ночной жизни одинокая «ночная бабочка» может оказаться внимательнее и сердечнее любого психоаналитика. Потому, что она захочет спасти несчастного пропойцу от него самого… Сможет ли эта странная любовь помочь обоим? Или – погубить обоих?-Качество видео: DVD R5
Контейнер: DVD Video
Видео кодек: MPEG2
Аудио кодек: AC3
Видео: PAL 4:3 (720x576) VBR. Битрейт: 4335 Кбит/сек. Максимальный битрейт: 9800 Кбит/сек. Частота кадров: 25,000 кадров/сек
Формат DVD: PAL
Аудио: AC3, 3/2 ch, 384Kbps, Delay 1200 mSec Russian (Dolby AC3, 5 ch)
Аудио #2: AC3, 3/2+LFE ch, 384Kbps, Delay 1200 mSec English (Dolby AC3, 6 ch)
Cубтитры: Русские и украинские
Формат субтитров: softsub (SRT)

Доп. информация

Сценарий Джон О`Брайэн, Майк Фиггис; продюсер Марк С. Фишер, Стюарт Реген; оператор Деклан Куинн; композитор Майк Фиггис, Харольд Арлен, Николас Кейдж (по материалам kinopoisk.ru).
Бюджет $4 000 000. Сборы в США $32 029 928. Премьера (мир) 15 сентября 1995 г.
ЛИЦЕНЗИОННОЕ ИЗДАНИЕ 2002 года от TWISTER DIGITAL VIDEO. Диск куплен в "Союзе". Не пожат. Диск и обложка отсканированы и представлены здесь.
Дополнительные материалы:
- создатели и исполнители;
- фильм о фильме;
- ролик;
- смотрите на DVD.

Награды

Фильм номинирован на "Оскар" в следующих категориях:
1 - Лучшая актриса
2 - Лучший режиссер
3 - Лучший сценарист (адаптация)
4 - Лучший сценарист (оригинальный сценарий)
Приз «Золотой глобус» - 1996 год.
Николас Кейдж – лауреат кинопремии «Оскар» 1996 года в номинации «Лучший актер».

Рецензия

Эта картина впервые была показана на кинофестивале в Торонто в начале сентября 1995 года, спустя почти два месяца вышла в прокат США «малым экраном», собрав за первую неделю всего $0,2 млн., но к концу года была уже расхвалена критиками, затем осыпана всевозможными премиями и уже выпущена в большом количестве кинотеатров. Особые восторги и массу призов (включая «Оскар») почему-то заслужила отнюдь не выдающаяся игра Николаса Кейджа в роли Бена Сэндерсона, сотрудника сценарного отдела в Голливуде, которого уволили за пагубное пристрастие к спиртному — и он отправился в Лас-Вегас, надеясь там упиться насмерть, причём в буквальном смысле слова. Знакомство с проституткой Серой и вдруг пробудившиеся в алкоголике чувства к молодой женщине, такой же одинокой и потерянной, как он сам, ничуть не отвратили Бена от первоначального замысла. И вопреки всем голливудским хэппи-эндам, он однажды тихо умер, оставив безутешную подружку на этом свете (кстати, автор романа Джон О’Брайен покончил с собой через две недели после начала работы над фильмом).
Возможно, именно подобный не слишком традиционный финал, а также несколько душевных и трогательных сцен между двумя изгнанниками из рая (всё-таки Элизабет Шу, которая тоже претендовала на премию Киноакадемии, играет с большей искренностью, чем её партнёр) вызвали, в конце концов, ответную сострадательную реакцию не только у журналистов, пишущих о кино (вероятно, они узнали самих себя в «заблудшем Бене»), но и у публики. Кассовые сборы малобюджетной ($4 млн.) ленты выросли в США уже до $32 млн. Хотя знаменательно, что «далеко от Лас-Вегаса», то есть в других странах мира, она успеха не имела.
Даже в неровном творчестве английского режиссёра Майка Фиггиса фильм «Покидая Лас-Вегас» представляется, несмотря на отдельные стилевые изыски, как бы не утраченные с прежних времён, более голливудски правильным, политкорректным — не случайно, что и сам постановщик впервые попал в престижную оскаровскую номинацию. Это тем более странно, что, например, ещё одна тогдашняя картина о Лас-Вегасе («Казино» Мартина Скорсезе) такой чести не удостоилась, а другая («Шоу-гёрлз» Пауля Верхувена) — об искательницах удачи во всё той же игорной империи посреди пустыни, вообще провалилась в прокате и абсолютно несправедливо была награждена семью «Золотыми малинами» за худшие достижения 1995 года. Неужели из-за того, что главная героиня — большая {мат}, но посылает куда более сучий мир шоу-бизнеса ко всем чертям и действительно удаляется прочь из Лас-Вегаса?!

MediaInfo

Общее
Полное имя : D:\Films\Pokidaya Las Vegas\VIDEO_TS\VTS_01_2.VOB
Формат : MPEG-PS
Размер файла : 1024 Мбайт
Продолжительность : 27 м.
Режим общего битрейта : Переменный
Общий поток : 5207 Кбит/сек
Видео
Идентификатор : 224 (0xE0)
Формат : MPEG Video
Версия формата : Version 2
Профиль формата : [email protected]
Параметр BVOP формата : Да
Параметр матрицы формата : Выборочная
Параметр GOP формата : M=3, N=12
Продолжительность : 27 м.
Вид битрейта : Переменный
Битрейт : 4335 Кбит/сек
Максимальный битрейт : 9800 Кбит/сек
Ширина : 720 пикселей
Высота : 576 пикселей
Соотношение сторон : 4:3
Частота кадров : 25,000 кадров/сек
Стандарт вещания : PAL
Цветовое пространство : YUV
Субдискретизация насыщенности : 4:2:0
Битовая глубина : 8 бит
Тип развёртки : Чересстрочная
Порядок развёртки : Верхнее поле первое
Метод сжатия : С потерями
Бит/(Пиксели*Кадры) : 0.418
Временной код первого кадра : 00:08:01:11
Оригинал временного кода : Group of pictures header
Размер потока : 852 Мбайт (83%)
Аудио #1
Идентификатор : 189 (0xBD)-128 (0x80)
Формат : AC-3
Формат/Информация : Audio Coding 3
Расширение режима : CM (complete main)
Параметр Endianness формата : Big
Режим смешивания : DVD-Video
Продолжительность : 27 м.
Вид битрейта : Постоянный
Битрейт : 384 Кбит/сек
Каналы : 5 каналов
Расположение каналов : Front: L C R, Side: L R
Частота : 48,0 КГц
Битовая глубина : 16 бит
Метод сжатия : С потерями
Задержка видео : -512 мс.
Размер потока : 75,5 Мбайт (7%)
Аудио #2
Идентификатор : 189 (0xBD)-129 (0x81)
Формат : AC-3
Формат/Информация : Audio Coding 3
Расширение режима : CM (complete main)
Параметр Endianness формата : Big
Режим смешивания : DVD-Video
Продолжительность : 27 м.
Вид битрейта : Постоянный
Битрейт : 384 Кбит/сек
Каналы : 6 каналов
Расположение каналов : Front: L C R, Side: L R, LFE
Частота : 48,0 КГц
Битовая глубина : 16 бит
Метод сжатия : С потерями
Задержка видео : -512 мс.
Размер потока : 75,5 Мбайт (7%)
Текст #1
Идентификатор : 189 (0xBD)-32 (0x20)
Формат : RLE
Формат/Информация : Run-length encoding
Режим смешивания : DVD-Video
Продолжительность : 27 м.
Задержка видео : 5 с. 600 мс.
Текст #2
Идентификатор : 189 (0xBD)-33 (0x21)
Формат : RLE
Формат/Информация : Run-length encoding
Режим смешивания : DVD-Video
Продолжительность : 27 м.
Задержка видео : 5 с. 600 мс.

DVDInfo

Title: LAS_VEGAS
Size: 4.37 Gb ( 4 586 820 KBytes ) - DVD-5
Enabled regions: 1, 2, 3, 4, 5, 6
VTS_01 :
Play Length: 01:47:05
Video: PAL 4:3 (720x576) VBR
Audio:
English (Dolby AC3, 5 ch)
English (Dolby AC3, 6 ch)
Subtitles:
English
English
VTS_02 :
Play Length: 00:02:01
Video: PAL 4:3 (720x576) VBR
Audio:
English (Dolby AC3, 2 ch)
VTS_03 :
Play Length: 00:05:26
Video: PAL 4:3 (720x576) VBR
Audio:
English (Dolby AC3, 2 ch)
VTS_04 :
Play Length: 00:00:40
Video: PAL 4:3 (720x576) VBR
Audio:
English (Dolby AC3, 2 ch)
Menu Video:
PAL 4:3 (720x576) VBR
Menu Subtitles:
Not specified
Menu English Language Unit :
Root Menu

Скриншоты

Яндекс.Метрика
Рейтинг@Mail.ru