Шерлок Холмс 3Д / Sherlock Holmes 3D (Guy Ritchie / Гай Ричи) [2009 г., боевик, триллер, комедия, BDRip, 1080p, Half OverUnder / Вертикальная анаморфная стереопара] Dub + Original (Eng)

 

Создавать темы 12-Мар-2014 02:34

-Шерлок Холмс 3Д / Sherlock Holmes 3D-- Производство: США, Германия
Год выпуска: 2009 г.
Жанр: боевик, триллер, комедия
Продолжительность: 02:13:51
Мировая премьера: 24 декабря 2009
Российская премьера: 31 декабря 2009
Дата выхода DVD: 6 апреля 2010
Дата выхода Blu-Ray: 6 апреля 2010
Перевод: Профессиональный (полное дублирование)
Оригинальный аудиопоток: английский
Режиссер: Guy Ritchie / Гай Ричи-В ролях: Роберт Дауни мл., Джуд Лоу, Рэйчел МакАдамс, Марк Стронг, Эдди Марсан, Роберт Мэйллет, Джеральдин Джеймс, Келли Райлли, Уильям Хьюстон, Хэнс Мэтисон-Описание: Величайший в истории сыщик Шерлок Холмс вместе со своим верным соратником Ватсоном вступают в схватку, требующую нешуточной физической и умственной подготовки, ведь их враг представляет угрозу для всего Лондона.-Качество видео: BDRip
Контейнер: MKV
Формат 3D: Half OverUnder / Вертикальная анаморфная стереопара
Порядок ракурсов: левый ракурс первый
Стандарт разрешения: 1080p
Видео кодек: H.264
Аудио кодек: AC3
Видео: 1920x1080 (4:2:0), 23.976 fps, H.264, 10,0 Мбит/сек
Аудио: Русский AC3 5.1, 48 KHz, 448 kbps (L,C,R,l,r) + LFE ch, ~448.00 kbps avg
Аудио #2: English AC3 5.1, 48 kHz, 448 kbps (L,C,R,l,r) + LFE ch, ~448.00 kbps avg
Cубтитры: отсутствуют

Media Info

Общее
Уникальный идентификатор : 229267549429318093555887605215645744665 (0xAC7B52E94A32E422B51C89F377453E19)
Полное имя : H:\Фильмы\Шерлок Холмс 3Д 2009 halfOU.mkv
Формат : Matroska
Версия формата : Version 2
Размер файла : 10,4 Гбайт
Продолжительность : 2 ч. 13 м.
Общий поток : 11,1 Мбит/сек
Дата кодирования : UTC 2013-08-11 02:35:04
Программа кодирования : mkvmerge v4.0.0 ('The Stars were mine') сборка от Jun 6 2010 16:18:42
Библиотека кодирования : libebml v1.0.0 + libmatroska v1.0.0
Видео
Идентификатор : 1
Формат : AVC
Формат/Информация : Advanced Video Codec
Профиль формата : [email protected]
Параметр CABAC формата : Нет
Параметр ReFrames формата : 2 кадра
Параметр GOP формата : M=1, N=12
Идентификатор кодека : V_MPEG4/ISO/AVC
Продолжительность : 2 ч. 13 м.
Битрейт : 10,0 Мбит/сек
Ширина : 1920 пикселей
Высота : 1080 пикселей
Соотношение сторон : 16:9
Режим частоты кадров : Постоянный
Частота кадров : 23,976 кадра/сек
Цветовое пространство : YUV
Субдискретизация насыщенности : 4:2:0
Битовая глубина : 8 бит
Тип развёртки : Прогрессивная
Бит/(Пиксели*Кадры) : 0.202
Размер потока : 9,38 Гбайт (90%)
Default : Нет
Forced : Нет
Аудио #1
Идентификатор : 2
Формат : AC-3
Формат/Информация : Audio Coding 3
Расширение режима : CM (complete main)
Параметр Endianness формата : Big
Идентификатор кодека : A_AC3
Продолжительность : 2 ч. 13 м.
Вид битрейта : Постоянный
Битрейт : 448 Кбит/сек
Каналы : 6 каналов
Расположение каналов : Front: L C R, Side: L R, LFE
Частота : 48,0 КГц
Битовая глубина : 16 бит
Метод сжатия : С потерями
Размер потока : 429 Мбайт (4%)
Заголовок : Дубляж
Язык : Russian
Default : Нет
Forced : Нет
Аудио #2
Идентификатор : 3
Формат : AC-3
Формат/Информация : Audio Coding 3
Расширение режима : CM (complete main)
Параметр Endianness формата : Big
Идентификатор кодека : A_AC3
Продолжительность : 2 ч. 13 м.
Вид битрейта : Постоянный
Битрейт : 448 Кбит/сек
Каналы : 6 каналов
Расположение каналов : Front: L C R, Side: L R, LFE
Частота : 48,0 КГц
Битовая глубина : 16 бит
Метод сжатия : С потерями
Размер потока : 429 Мбайт (4%)
Заголовок : Оригинал
Язык : English
Default : Нет
Forced : Нет
Меню
00:00:00.000 : :Chapter 1
00:06:46.531 : :Chapter 2
00:11:30.231 : :Chapter 3
00:15:41.607 : :Chapter 4
00:19:08.897 : :Chapter 5
00:23:29.074 : :Chapter 6
00:27:49.876 : :Chapter 7
00:32:01.252 : :Chapter 8
00:37:08.434 : :Chapter 9
00:40:50.406 : :Chapter 10
00:44:37.216 : :Chapter 11
00:47:39.690 : :Chapter 12
00:50:52.173 : :Chapter 13
00:55:17.605 : :Chapter 14
00:59:04.457 : :Chapter 15
01:03:04.780 : :Chapter 16
01:06:08.047 : :Chapter 17
01:11:14.102 : :Chapter 18
01:14:39.349 : :Chapter 19
01:17:36.318 : :Chapter 20
01:23:35.093 : :Chapter 21
01:26:06.953 : :Chapter 22
01:30:57.159 : :Chapter 23
01:35:15.376 : :Chapter 24
01:39:45.979 : :Chapter 25
01:44:18.001 : :Chapter 26
01:48:21.953 : :Chapter 27
01:54:02.710 : :Chapter 28
01:56:07.501 : :Chapter 29
02:00:26.177 : :Chapter 30
02:08:24.488 : :Chapter 31

Скриншот c названием фильма

Скриншоты

Яндекс.Метрика
Рейтинг@Mail.ru