[ Сегодня на трекере фрилич! Идет свободное скачивание без начисления Download ]

Грех (Радомир Василевский) [1992 г., детектив, мистика, TVRip]

 

Создавать темы 12-Мар-2014 02:27

-Грех-- Производство: Россия, «Ладья»
Режиссер: Радомир Василевский
Жанр: детектив, мистика
Год выпуска: 1992 г.
Продолжительность: 01:19:27
В ролях: Анатолий Ромашин, Эдуард Марцевич, Георгий Юматов, Евгения Добровольская, Михаил Филиппов, Дмитрий Орлов, Павел Степанов, Семён Фарада-Описание: Сергей Сергеевич, отставной полковник КГБ, уже давно на пенсии, но бодр и подтянут. Да и на жизнь не жалуется: все имеется, даже любовница, которая мечтает выйти за него замуж. Но однажды зимним вечером к нему приходят двое...-Качество видео: TVRip
Контейнер: AVI
Видео кодек: XviD
Аудио кодек: MP3
Видео: 576x432 (1.33:1), 25 fps, XviD 1.2.1 (UTC 2008-12-04)~ 575 kbps avg, 0.092 bit/pixel
Аудио: 48 kHz, MPEG Layer 3, 1 ch, ~128.00 kbps avg
Cубтитры: отсутствуют

Media Info

Общее
Полное имя : E:\Torrent\Greh.avi
Формат : AVI
Формат/Информация : Audio Video Interleave
Размер файла : 405 Мбайт
Продолжительность : 1 ч. 19 м.
Общий поток : 712 Кбит/сек
Программа кодирования : VirtualDubMod 1.5.4.1 (build 2178/release)
Библиотека кодирования : VirtualDub build 35390/release
Видео
Идентификатор : 0
Формат : MPEG-4 Visual
Профиль формата : Advanced [email protected]
Параметр BVOP формата : 1
Параметр QPel формата : Нет
Параметр GMC формата : Без точки перехода
Параметр матрицы формата : Default (MPEG)
Режим смешивания : Сжатый битовый поток
Идентификатор кодека : XVID
Идентификатор кодека/Подсказка : XviD
Продолжительность : 1 ч. 19 м.
Битрейт : 575 Кбит/сек
Ширина : 576 пикселей
Высота : 432 пикселя
Соотношение сторон : 4:3
Частота кадров : 25,000 кадров/сек
Цветовое пространство : YUV
Субдискретизация насыщенности : 4:2:0
Битовая глубина : 8 бит
Тип развёртки : Прогрессивная
Метод сжатия : С потерями
Бит/(Пиксели*Кадры) : 0.092
Размер потока : 327 Мбайт (81%)
Библиотека кодирования : XviD 1.2.1 (UTC 2008-12-04)
Аудио
Идентификатор : 1
Формат : MPEG Audio
Версия формата : Version 1
Профиль формата : Layer 3
Идентификатор кодека : 55
Идентификатор кодека/Подсказка : MP3
Продолжительность : 1 ч. 19 м.
Вид битрейта : Постоянный
Битрейт : 128 Кбит/сек
Каналы : 1 канал
Частота : 48,0 КГц
Метод сжатия : С потерями
Размер потока : 72,7 Мбайт (18%)
Выравнивание : Соединение по промежуткам
Продолжительность промежутка : 40 мс. (1,00 видеокадр)
Время предзагрузки промежутка : 504 мс.
Библиотека кодирования : LAME3.97
Настройки программы : -m m -V 4 -q 2 -lowpass 20.5 -b 128

Скриншоты

Яндекс.Метрика
Рейтинг@Mail.ru