Далласский клуб покупателей / Dallas Buyers Club (Жан-Марк Валле / Jean-Marc Vallée) [2013 г., драма, биография, история, BDRip-AVC, 576p] AVO (Сергей Визгунов)

 

Создавать темы 12-Мар-2014 02:09

Далласский клуб покупателей / Dallas Buyers Club«Dare to Live»- Год выпуска: 2013
Производство: США, Truth Entertainment
Жанр: драма, биография, история
Продолжительность: 01:56:57
Перевод: Авторский (одноголосый, закадровый) Сергей Визгунов
Субтитры: русские
Режиссер: Жан-Марк Валле / Jean-Marc Vallée
В ролях: Мэттью МакКонахи, Джаред Лето, Дженнифер Гарнер, Дэнис О`Харе, Стив Зан, Майкл О`Нил, Даллас Робертс, Гриффин Данн, Кевин О. Ранкин
Описание: Реальная история Рона Вудруфа, техасского электрика, у которого в 1985 году обнаружили СПИД. Врачи отвели ему всего 30 дней, но он не пожелал смириться со смертным приговором и сумел продлить свою жизнь, принимая нетрадиционные лекарства, а затем наладил подпольный бизнес по продаже их другим больным.
Качество видео: BDRip-AVC
Контейнер: MKV
Стандарт разрешения: 576p
Видео кодек: MPEG-4 AVC / H.264
Видео: 1024x426 / 1773 kbps / 23,976 fps / 2,40:1 / [email protected]
Аудио : 48 kHz, AC3 Dolby Digital, 3/2 (L,C,R,l,r) + LFE ch, ~448 kbps avg - Сергей Визгунов
Формат субтитров: softsub (SRT)

Награды

Оскар, 2014 год
Победитель (3):
Лучшая мужская роль (Мэттью МакКонахи)
Лучшая мужская роль второго плана (Джаред Лето)
Лучший грим и прически
Номинации (3):
Лучший фильм
Лучший сценарий
Лучший монтаж
Золотой глобус, 2014 год
Победитель (2):
Лучшая мужская роль (драма) (Мэттью МакКонахи)
Лучшая мужская роль второго плана (Джаред Лето)
Премия Гильдии актеров, 2014 год
Победитель (2):
Лучшая мужская роль (Мэттью МакКонахи)
Лучшая мужская роль второго плана (Джаред Лето)
Номинации (1):
Лучший актерский состав
Сан-Себастьян, 2013 год
Победитель (1):
Приз Себастьяна

Media Info

Формат : Matroska
Версия формата : Version 4 / Version 2
Размер файла : 1,81 Гбайт
Продолжительность : 1 ч. 56 м.
Общий поток : 2219 Кбит/сек
Название фильма : Dallas Buyers Club.2013.BDRip
Дата кодирования : UTC 2014-03-11 22:10:29
Программа кодирования : mkvmerge v6.8.0 ('Theme for Great Cities') 32bit built on Mar 2 2014 21:27:07
Библиотека кодирования : libebml v1.3.0 + libmatroska v1.4.1
Видео
Идентификатор : 1
Формат : AVC
Формат/Информация : Advanced Video Codec
Профиль формата : [email protected]
Параметр CABAC формата : Да
Параметр ReFrames формата : 10 кадров
Идентификатор кодека : V_MPEG4/ISO/AVC
Продолжительность : 1 ч. 56 м.
Битрейт : 1773 Кбит/сек
Ширина : 1024 пикселя
Высота : 426 пикселей
Соотношение сторон : 2,40:1
Режим частоты кадров : Постоянный
Частота кадров : 23,976 кадра/сек
Цветовое пространство : YUV
Субдискретизация насыщенности : 4:2:0
Битовая глубина : 8 бит
Тип развёртки : Прогрессивная
Бит/(Пиксели*Кадры) : 0.170
Размер потока : 1,41 Гбайт (78%)
Заголовок : Dallas Buyers Club.2013.BDRip
Библиотека кодирования : x264 core 130 r2273 b3065e6
Настройки программы : cabac=1 / ref=10 / deblock=1:-2:-2 / analyse=0x3:0x113 / me=umh / subme=11 / psy=1 / psy_rd=1.00:0.20 / mixed_ref=1 / me_range=64 / chroma_me=1 / trellis=2 / 8x8dct=1 / cqm=0 / deadzone=21,11 / fast_pskip=0 / chroma_qp_offset=-3 / threads=6 / lookahead_threads=1 / sliced_threads=0 / nr=0 / decimate=0 / interlaced=0 / bluray_compat=0 / constrained_intra=0 / bframes=13 / b_pyramid=2 / b_adapt=2 / b_bias=0 / direct=3 / weightb=1 / open_gop=0 / weightp=2 / keyint=240 / keyint_min=23 / scenecut=40 / intra_refresh=0 / rc=2pass / mbtree=0 / bitrate=1773 / ratetol=1.0 / qcomp=0.60 / qpmin=0 / qpmax=69 / qpstep=4 / cplxblur=20.0 / qblur=0.5 / ip_ratio=1.40 / pb_ratio=1.30 / aq=1:0.80
Язык : English
Default : Да
Forced : Нет
Аудио
Идентификатор : 2
Формат : AC-3
Формат/Информация : Audio Coding 3
Расширение режима : CM (complete main)
Параметр Endianness формата : Big
Идентификатор кодека : A_AC3
Продолжительность : 1 ч. 56 м.
Вид битрейта : Постоянный
Битрейт : 448 Кбит/сек
Каналы : 6 каналов
Расположение каналов : Front: L C R, Side: L R, LFE
Частота : 48,0 КГц
Битовая глубина : 16 бит
Метод сжатия : С потерями
Размер потока : 375 Мбайт (20%)
Заголовок : Vizgunov AC3 5.1 448 kbps
Язык : Russian
Default : Да
Forced : Нет
Текст
Идентификатор : 3
Формат : UTF-8
Идентификатор кодека : S_TEXT/UTF8
Идентификатор кодека/Информация : UTF-8 Plain Text
Заголовок : Full
Язык : Russian
Default : Нет
Forced : Нет
Меню
00:00:00.000 : en:00:00:00.000
00:06:20.672 : en:00:06:20.672
00:11:52.879 : en:00:11:52.879
00:18:41.579 : en:00:18:41.579
00:24:55.703 : en:00:24:55.703
00:29:44.282 : en:00:29:44.282
00:35:15.697 : en:00:35:15.697
00:41:33.282 : en:00:41:33.282
00:46:32.873 : en:00:46:32.873
00:51:49.023 : en:00:51:49.023
00:55:37.834 : en:00:55:37.834
01:01:25.974 : en:01:01:25.974
01:07:16.783 : en:01:07:16.783
01:12:37.645 : en:01:12:37.645
01:19:55.249 : en:01:19:55.249
01:28:25.550 : en:01:28:25.550
01:36:56.644 : en:01:36:56.644
01:43:06.639 : en:01:43:06.639
01:47:59.473 : en:01:47:59.473
01:52:12.851 : en:01:52:12.851

Скриншоты

Яндекс.Метрика
Рейтинг@Mail.ru