Черные кошки [01-12 из 12] (2013) DVDRip-AVC | лицензия

 

Создавать темы 11-Мар-2014 18:30

Информация о фильме:
Оригинальное название: Черные кошки
Год выпуска: 2013
Жанр: Исторический детектив
Режиссер: Евгений Лаврентьев-В ролях:
Павел Деревянко, Марина Коняшкина, Ольга Ломоносова, Евгений Сидихин, Павел Трубинер, Роман Лукьянов, Алексей Комашко, Михаил Хмуров, Мария Антонова (II), Вадим Норштейн, Богдан Колесник, Сергей Деньга, Виктор Демковский-О фильме:
1947 год. Ростов-на-Дону. В стране, обескровленной войной, царят голод и разруха. Хлеб - в буквальном смысле на вес золота, а стоимость человеческой жизни равняется нулю. Растет число преступлений, появляются бандитские группировки, которые контролируют целые города. Подобно черным кошкам, они появляются незамеченными под покровом ночи, и легко уходят с места преступления. Банда, действующая в Ростове, грабит продовольственный склад, оставляя кровавые следы. Сотрудник уголовного розыска майор Егор Драгун подозревает, что в ней действуют не обычные уголовники. Его подозрения оправдываются: под бандитов, запутывая следы, маскируются бывшие сотрудники вермахта. Их истинная цель - захват известного немецкого ученого, который находится в лагере для военнопленных на территории Ростова-на-Дону. В Германии ученый работал над созданием атомной бомбы. Если вывезти его в Аргентину, куда после войны переместились фашистские группировки, и дать закончить работу, может начаться ядерная война. Цель Драгуна и его подручных - найти и обезвредить преступников. Помощь приходит, откуда не ждали - со стороны настоящих уголовников. Объединившись ради общей цели, они не дадут развязать новую войну.- -Страна: Россия
Студия: «Марс Медиа», «Продюсерский центр «ГОРАД», «Студия «Пантократор»
Продолжительность: 12 x ~ 00:45:00
Язык: Русский [лицензия]-Файл:
Качество: DVDRip (3 x DVD9 R5)
Формат: MKV
Видео: [email protected] (16:9), 25.000 fps, H264 ~ 1706 kbps avg, 0.165 bit/pixel
Аудио: 48 kHz, АС3 6 ch, 448 kbps, русский- -

MediaInfo

Общее
Полное имя : Chernye.koshki.2013.O.DVDRip-AVC_by_avproh1.mkv
Формат : Matroska
Версия формата : Version 2
Размер файла : 761 Мбайт
Продолжительность : 49 м.
Общий поток : 2155 Кбит/сек
Дата кодирования : UTC 2014-03-11 00:06:24
Программа кодирования : mkvmerge v6.1.0 ('Old Devil') built on Mar 4 2013 09:10:42
Библиотека кодирования : libebml v1.3.0 + libmatroska v1.4.0
Видео
Идентификатор : 1
Формат : AVC
Формат/Информация : Advanced Video Codec
Профиль формата : [email protected]
Параметр CABAC формата : Да
Параметр ReFrames формата : 6 кадров
Идентификатор кодека : V_MPEG4/ISO/AVC
Продолжительность : 49 м.
Битрейт : 1706 Кбит/сек
Ширина : 720 пикселей
Высота : 576 пикселей
Соотношение сторон : 16:9
Режим частоты кадров : Постоянный
Частота кадров : 25,000 кадров/сек
Стандарт вещания : PAL
Цветовое пространство : YUV
Субдискретизация насыщенности : 4:2:0
Битовая глубина : 8 бит
Тип развёртки : Прогрессивная
Бит/(Пиксели*Кадры) : 0.165
Размер потока : 587 Мбайт (77%)
Библиотека кодирования : x264 core 138 r2356 a1d3d17
Настройки программы : cabac=1 / ref=6 / deblock=1:-2:-1 / analyse=0x3:0x113 / me=umh / subme=10 / psy=1 / psy_rd=1.00:0.05 / mixed_ref=1 / me_range=32 / chroma_me=1 / trellis=2 / 8x8dct=1 / cqm=0 / deadzone=21,11 / fast_pskip=0 / chroma_qp_offset=-3 / threads=9 / lookahead_threads=1 / sliced_threads=0 / nr=0 / decimate=0 / interlaced=0 / bluray_compat=0 / constrained_intra=0 / bframes=8 / b_pyramid=2 / b_adapt=2 / b_bias=0 / direct=3 / weightb=1 / open_gop=0 / weightp=2 / keyint=250 / keyint_min=25 / scenecut=40 / intra_refresh=0 / rc=2pass / mbtree=0 / bitrate=1706 / ratetol=1.0 / qcomp=0.60 / qpmin=0 / qpmax=69 / qpstep=4 / cplxblur=20.0 / qblur=0.5 / ip_ratio=1.40 / pb_ratio=1.30 / aq=1:1.00
Default : Да
Forced : Нет
Аудио
Идентификатор : 2
Формат : AC-3
Формат/Информация : Audio Coding 3
Расширение режима : CM (complete main)
Параметр Endianness формата : Big
Идентификатор кодека : A_AC3
Продолжительность : 49 м.
Вид битрейта : Постоянный
Битрейт : 448 Кбит/сек
Каналы : 6 каналов
Расположение каналов : Front: L C R, Side: L R, LFE
Частота : 48,0 КГц
Битовая глубина : 16 бит
Метод сжатия : С потерями
Размер потока : 158 Мбайт (21%)
Default : Да
Forced : Нет

Скриншоты:

Резервные скриншоты:

Яндекс.Метрика
Рейтинг@Mail.ru