[ Сегодня на трекере фрилич! Идет свободное скачивание без начисления Download ]

Отец-молодец / Delivery Man (Кен Скотт) [2013 г., Комедия, драма, BDRip]

 

Создавать темы 11-Мар-2014 17:41

Отец-молодец / Delivery Man
Год выпуска: 2013
Жанр: Комедия, драма
Продолжительность: 01:44:56
Режиссер: Кен Скотт
В ролях: Винс Вон, Крис Прэтт, Коби Смолдерс, Анджей Блюменфельд, Саймон Делани, Бобби Мойнахан, Дэйв Паттен, Адам Чанлер-Берат, Бритт Робертсон, Джек Рейнор
Описание: Жизнь бруклинского работяги Дэвида Возняка не похожа на праздник: у него кризис среднего возраста, он должен денег подпольному ростовщику, девушка собирается его бросить, а родной отец грозит увольнением с работы. А в довершение всех бед к нему приходит адвокат с известием о том, что в результате ошибки, которую двадцать лет назад совершили в банке спермы, который Дэвид посещал в студенческие годы, он является биологическим отцом 533 детей. И 142 из них обратились в суд с требованием раскрыть имя своего родителя. Вначале Дэвид не знает, что делать в такой ситуации, но постепенно любопытство перевешивает, и он решает — инкогнито — узнать поближе хотя бы некоторых из своих нежданных потомков…
Доп. информация: Перевод: Дублированный
Качество: BDRip
Видео: MPEG-4 AVC, 1897 Кбит/с, 1024x426, 23.976 кадр/с
Аудио: #1: Русский (AC3, 6 ch, 384 Кбит/с) / Дублированный (iTunes) #2: Английский (AC3, 6 ch, 448 Кбит/с) Субтитры: Английские

Общее

Уникальный идентификатор : 184089902389921734324692658647504732201 (0x8A7E6CF0A96A88948EA7AADF256F4029)
Полное имя : D:Mои раздачиOtec-molodec.2013.BDRip.(AVC)-MediaClub.mkv
Формат : Matroska
Версия формата : Version 4 / Version 2
Размер файла : 2,00 Гбайт
Продолжительность : 1 ч. 44 м.
Общий поток : 2730 Кбит/сек
Название фильма : -=MediaClub-kaspr=-
Дата кодирования : UTC 2014-03-11 05:30:07
Программа кодирования : mkvmerge v6.8.0 ('Theme for Great Cities') 64bit built on Mar 2 2014 21:34:26
Библиотека кодирования : libebml v1.3.0 + libmatroska v1.4.1
Видео
Идентификатор : 1
Формат : AVC
Формат/Информация : Advanced Video Codec
Профиль формата : [email protected]
Параметр CABAC формата : Да
Параметр ReFrames формата : 10 кадров
Идентификатор кодека : V_MPEG4/ISO/AVC
Продолжительность : 1 ч. 44 м.
Битрейт : 1897 Кбит/сек
Ширина : 1024 пикселя
Высота : 426 пикселей
Соотношение сторон : 2,40:1
Режим частоты кадров : Постоянный
Частота кадров : 23,976 кадра/сек
Цветовое пространство : YUV
Субдискретизация насыщенности : 4:2:0
Битовая глубина : 8 бит
Тип развёртки : Прогрессивная
Бит/(Пиксели*Кадры) : 0.181
Размер потока : 1,35 Гбайт (68%)
Заголовок : -=MediaClub-kaspr=-
Библиотека кодирования : x264 core 142 r2389+41 02cb608 tMod [[email protected]:2:0 X86_64]
Настройки программы : cabac=1 / ref=10 / deblock=1:-3:-3 / analyse=0x3:0x113 / me=umh / subme=11 / psy=1 / fade_compensate=0.00 / psy_rd=1.00:0.20 / mixed_ref=1 / me_range=32 / chroma_me=1 / trellis=2 / 8x8dct=1 / cqm=0 / deadzone=21,11 / fast_pskip=0 / chroma_qp_offset=-3 / threads=12 / lookahead_threads=3 / sliced_threads=0 / nr=0 / decimate=0 / interlaced=0 / bluray_compat=0 / constrained_intra=0 / fgo=0 / bframes=14 / b_pyramid=2 / b_adapt=2 / b_bias=0 / direct=3 / weightb=1 / open_gop=0 / weightp=2 / keyint=240 / keyint_min=23 / scenecut=40 / intra_refresh=0 / rc=2pass / mbtree=0 / bitrate=1897 / ratetol=1.0 / qcomp=0.60 / qpmin=0:0:0 / qpmax=69:69:69 / qpstep=4 / cplxblur=20.0 / qblur=0.5 / ip_ratio=1.40 / pb_ratio=1.30 / aq=2:0.80 / aq-sensitivity=10.00 / aq-factor=1.00:1.00:1.00 / aq2=0 / aq3=0
Default : Да
Forced : Да
Аудио #1
Идентификатор : 2
Формат : AC-3
Формат/Информация : Audio Coding 3
Расширение режима : CM (complete main)
Параметр Endianness формата : Big
Идентификатор кодека : A_AC3
Продолжительность : 1 ч. 44 м.
Вид битрейта : Постоянный
Битрейт : 384 Кбит/сек
Каналы : 6 каналов
Расположение каналов : Front: L C R, Side: L R, LFE
Частота : 48,0 КГц
Битовая глубина : 16 бит
Метод сжатия : С потерями
Размер потока : 288 Мбайт (14%)
Заголовок : Dub
Язык : Russian
Default : Да
Forced : Да
Аудио #2
Идентификатор : 3
Формат : AC-3
Формат/Информация : Audio Coding 3
Расширение режима : CM (complete main)
Параметр Endianness формата : Big
Идентификатор кодека : A_AC3
Продолжительность : 1 ч. 44 м.
Вид битрейта : Постоянный
Битрейт : 448 Кбит/сек
Каналы : 6 каналов
Расположение каналов : Front: L C R, Side: L R, LFE
Частота : 48,0 КГц
Битовая глубина : 16 бит
Метод сжатия : С потерями
Размер потока : 336 Мбайт (16%)
Язык : English
Default : Нет
Forced : Нет
Текст
Идентификатор : 4
Формат : UTF-8
Идентификатор кодека : S_TEXT/UTF8
Идентификатор кодека/Информация : UTF-8 Plain Text
Язык : English
Default : Нет
Forced : Нет
Меню
00:00:00.000 : en:Chapter 01
00:04:12.335 : en:Chapter 02
00:10:42.391 : en:Chapter 03
00:15:03.861 : en:Chapter 04
00:21:04.054 : en:Chapter 05
00:27:42.494 : en:Chapter 06
00:35:00.556 : en:Chapter 07
00:40:03.400 : en:Chapter 08
00:45:06.286 : en:Chapter 09
00:51:59.115 : en:Chapter 10
00:58:35.011 : en:Chapter 11
01:04:47.216 : en:Chapter 12
01:07:59.325 : en:Chapter 13
01:15:05.125 : en:Chapter 14
01:20:11.223 : en:Chapter 15
01:24:59.677 : en:Chapter 16
01:30:48.317 : en:Chapter 17
01:39:56.490 : en:Chapter 18

Скриншоты

Яндекс.Метрика
Рейтинг@Mail.ru