Землетрясение / Tangshan da dizhen (Фэн Сяоган / Xiaogang Feng) [2010 г., драма, HDRip] Dub

 

Создавать темы 11-Мар-2014 16:36

«Одно мгновение может изменить твою жизнь навсегда...»-Землетрясение / Tangshan da dizhen-- Производство: Китай
Год выпуска: 2010 г.
Жанр: драма
Продолжительность: 02:16:05
Мировая премьера: 22 июля 2010
Российская премьера: 14 апреля 2011, «Кинопром»
Дата выхода DVD: 2 июня 2011, «Мистерия Звука»
Дата выхода Blu-Ray: 25 августа 2011, «Мистерия Звука»
Перевод: Профессиональный (полное дублирование)
Режиссер: Фэн Сяоган / Xiaogang Feng-В ролях: Чжан Цзинчу, Чэнь Даомин, Ли Чэнь, Лу И, Сюй Фань, Чжан Гоцян, Чэнь Цзинь, Цзы-фэн Чжан, Ван Цзывэнь, Жонг Люй...-Описание: Землетрясение в городе Таншане (провинция Хэбэй) 1976 года длилось меньше чем полминуты, но унесло несколько сотен тысяч жизней. Эти секунды поставили мать перед невозможным выбором - спасти сына или дочь, и спасение обернулось грузом вины на десятилетия.-
Качество видео: HDRip
Контейнер: AVI
Видео кодек: XviD
Аудио кодек: AC3
Видео: MPEG4, XviD, 720x304 (2.35:1), 24.000 fps, 1 829 Kbps (0.348 bit/pixel)
Аудио: Русский, AC3, 48.0 KHz, 6 ch, 448 Kbps, CBR
Cубтитры: отсутствуют

Media Info

General
Complete name : H:\БУРЖУЙСКОЕ КИНО\BDRip\Землетрясение Tang shan da di zhen (2010) HDRip\Zemletrjasenie.2010_HDRip.avi
Format : AVI
Format/Info : Audio Video Interleave
Format profile : OpenDML
File size : 2.18 GiB
Duration : 2h 16mn
Overall bit rate : 2 289 Kbps
Writing library : VirtualDubMod build 2550/release
Video
ID : 0
Format : MPEG-4 Visual
Format profile : Streaming [email protected]
Format settings, BVOP : Yes
Format settings, QPel : No
Format settings, GMC : No warppoints
Format settings, Matrix : Custom
Codec ID : XVID
Codec ID/Hint : XviD
Duration : 2h 16mn
Bit rate : 1 829 Kbps
Width : 720 pixels
Height : 304 pixels
Display aspect ratio : 2.35
Frame rate : 24.000 fps
Resolution : 24 bits
Colorimetry : 4:2:0
Scan type : Progressive
Bits/(Pixel*Frame) : 0.348
Stream size : 1.74 GiB (80%)
Writing library : XviD 73
Audio
ID : 1
Format : AC-3
Format/Info : Audio Coding 3
Codec ID : 2000
Duration : 2h 16mn
Bit rate mode : Constant
Bit rate : 448 Kbps
Channel(s) : 6 channels
Channel positions : Front: L C R, Surround: L R, LFE
Sampling rate : 48.0 KHz
Stream size : 436 MiB (20%)
Alignment : Split accross interleaves
Interleave, duration : 42 ms (1.00 video frame)
Interleave, preload duration : 500 ms

Скриншот c названием фильма

Скриншоты

Яндекс.Метрика
Рейтинг@Mail.ru