[ Сегодня на трекере фрилич! Идет свободное скачивание без начисления Download ]

Погребенный заживо / Buried (Родриго Кортес / Rodrigo Cortés) [2010 г., триллер, драма, детектив, BDRip, 720p] Dub Sub Eng + Original (Eng)

 

Создавать темы 10-Мар-2014 11:16

-Погребенный заживо / Buried«170 000 sq miles of desert. 90 minutes of oxygen. No way out»-- Производство: США, Франция, Испания
Год выпуска: 2010 г.
Жанр: триллер, драма, детектив
Продолжительность: 01:35:27
Мировая премьера: 23 января 2010
Перевод: Профессиональный (полное дублирование) [R5]
Оригинальный аудиопоток: английский
Режиссер: Родриго Кортес / Rodrigo Cortés-В ролях: Райан Рейнольдс, Хосе Луис Гарсия Перез, Роберт Патерсон, Стивен Тоболовски, Саманта Мэтис, Ивана Миньо, Уорнер Лафлин, Эрик Палладино, Кали Роча, Крис Мартин-Описание: Герой фильма Пол, находящийся в Ираке по контракту, во время засады теряет сознание и спустя время приходит в себя в странном тесном темном месте. Не трудно догадаться, что воспользовавшись зажигалкой, Пол обнаруживает себя похороненным в гробу. Ему предстоит пережить много страшных, психологически тяжелых, физически невозможных мгновений борьбы за собственную жизнь в попытках выбраться из неожиданной ловушки...
- - -Качество видео: BDRip
Контейнер: MKV
Стандарт разрешения: 720p
Видео кодек: H.264/AVC
Аудио кодек: DTS
Видео: 1280x544 at 23.976 fps, ~5000 kbps avg
Аудио: Russian: 48 kHz, DTS, 3/2 (L,C,R,l,r) + LFE ch, ~1536.00 kbps avg |Дубляж, R5|
Аудио #2: English: 48 kHz, DTS, 3/2 (L,C,R,l,r) + LFE ch, ~1536.00 kbps avg
Cубтитры: английские

Media Info

General
Complete name                    : T:\Uploads\Pirat.Ca\Buried.2010.720p.BDRip.Rus.Eng.mkv
Format                           : Matroska
File size                        : 5.35 GiB
Duration                         : 1h 35mn
Overall bit rate                 : 8 019 Kbps
Movie name                       : Buried (2010) - Release for HDCLUB
Encoded date                     : UTC 2010-12-28 11:28:19
Writing application              : mkvmerge v4.4.0 ('Die Wiederkehr') сборка от Oct 31 2010 21:52:48
Writing library                  : libebml v1.0.0 + libmatroska v1.0.0
Video
ID                               : 1
Format                           : AVC
Format/Info                      : Advanced Video Codec
Format profile                   : [email protected]
Format settings, CABAC           : Yes
Format settings, ReFrames        : 9 frames
Muxing mode                      : Container [email protected]
Codec ID                         : V_MPEG4/ISO/AVC
Duration                         : 1h 35mn
Bit rate                         : 5 000 Kbps
Width                            : 1 280 pixels
Height                           : 544 pixels
Display aspect ratio             : 2.35:1
Frame rate                       : 23.976 fps
Color space                      : YUV
Chroma subsampling               : 4:2:0
Bit depth                        : 8 bits
Scan type                        : Progressive
Bits/(Pixel*Frame)               : 0.299
Stream size                      : 3.23 GiB (60%)
Title                            : Buried (2010) - Release for HDCLUB
Writing library                  : x264 core 108 r1790 8eaf8a6
Encoding settings                : cabac=1 / ref=9 / deblock=1:-3:-3 / analyse=0x3:0x113 / me=umh / subme=9 / psy=1 / psy_rd=1.00:0.00 / mixed_ref=1 / me_range=16 / chroma_me=1 / trellis=2 / 8x8dct=1 / cqm=0 / deadzone=21,11 / fast_pskip=0 / chroma_qp_offset=-2 / threads=6 / sliced_threads=0 / nr=0 / decimate=0 / interlaced=0 / constrained_intra=0 / bframes=10 / b_pyramid=2 / b_adapt=2 / b_bias=0 / direct=3 / weightb=1 / open_gop=0 / weightp=2 / keyint=250 / keyint_min=23 / scenecut=40 / intra_refresh=0 / rc=2pass / mbtree=0 / bitrate=5000 / ratetol=1.0 / qcomp=0.60 / qpmin=10 / qpmax=51 / qpstep=4 / cplxblur=20.0 / qblur=0.5 / ip_ratio=1.40 / pb_ratio=1.30 / aq=1:0.60
Language                         : English
Audio #1
ID                               : 2
Format                           : DTS
Format/Info                      : Digital Theater Systems
Codec ID                         : A_DTS
Duration                         : 1h 35mn
Bit rate mode                    : Constant
Bit rate                         : 1 510 Kbps
Channel(s)                       : 6 channels
Channel positions                : Front: L C R, Side: L R, LFE
Sampling rate                    : 48.0 KHz
Bit depth                        : 24 bits
Stream size                      : 1.01 GiB (19%)
Title                            : DTS 5.1ch 1510 kbps - Дубляж
Language                         : Russian
Audio #2
ID                               : 3
Format                           : DTS
Format/Info                      : Digital Theater Systems
Codec ID                         : A_DTS
Duration                         : 1h 35mn
Bit rate mode                    : Constant
Bit rate                         : 1 510 Kbps
Channel(s)                       : 6 channels
Channel positions                : Front: L C R, Side: L R, LFE
Sampling rate                    : 48.0 KHz
Bit depth                        : 24 bits
Stream size                      : 1.01 GiB (19%)
Title                            : DTS 5.1ch 1510 kbps
Language                         : English
Text
ID                               : 4
Format                           : UTF-8
Codec ID                         : S_TEXT/UTF8
Codec ID/Info                    : UTF-8 Plain Text
Language                         : English
Menu
00:00:00.001                     : en: Blindness
00:04:25.266                     : en: Light
00:09:29.570                     : en: Cell Phone
00:15:47.072                     : en: FBI
00:20:42.867                     : en: Help?
00:24:55.119                     : en: Get Me The Number
00:33:18.163                     : en: Take The Call
00:39:27.157                     : en: What About Me?
00:46:16.399                     : en: Anxious
00:49:29.592                     : en: It's Paul
00:55:43.341                     : en: Unexpected Attack
01:03:48.075                     : en: Incoming Message
01:09:30.167                     : en: Terminated
01:15:34.030                     : en: Losing Hope
01:23:00.476                     : en: Show Blood
01:27:18.484                     : en: Have To Hurry

Скриншоты

Яндекс.Метрика
Рейтинг@Mail.ru