Сахара / Sahara (Брек Эйснер / Breck Eisner) [2005 г., боевик, триллер, комедия, приключения, военный, HDRip] AVO (Гаврилов)

 

Создавать темы 10-Мар-2014 11:12

Сахара / Sahara
Год выпуска: 2005
Производство: Великобритания, Испания, Германия, США, Paramount Pictures, Bristol Bay Productions, Baldwin Entertainment Group
Жанр: боевик, триллер, комедия, приключения, военный
Продолжительность: 02:03:58
Перевод: Авторский (одноголосый, закадровый) Андрей Гаврилов
Субтитры: отсутствуют
Режиссер: Брек Эйснер / Breck Eisner
В ролях: Мэттью МакКонахи, Пенелопа Крус, Стив Зан, Уильям Х. Мэйси, Делрой Линдо, Ленни Джеймс, Патрик Мэлахайд, Рэйн Уилсон, Ламбер Вильсон, Роберт Кавана
Описание: Неистребимая жажда приключений толкает Дирка Пита в одну из самых опасных областей Западной Африки. Поиск несметных сокровищ Нила сопровождается страшной тайной — засекреченный «корабль смерти» повинен в гибели людей.
Питу, вместе с другом, необходимо держать ухо востро, собрав воедино смекалку, мужество и героизм, чтобы помочь доктору Еве Рохас победить таинственную болезнь, уносящую человеческие жизни в результате действия и желания себе же подобных.
КиноПоиск
Качество видео: HDRip
Контейнер: AVI
Видео кодек: XviD
Аудио кодек: AC3
Видео: 656x368 (1.78:1), 23.976 fps, XviD build 65 ~1478 kbps avg, 0.26 bit/pixel
Аудио : 48 kHz, AC3 Dolby Digital, 2/0 (L,R) ch, ~192 kbps

Доп. информация

в дороге отсутствовал перевод начальных восьми минут, была сделана вставка перевода Владимира Королева

Media Info

Complete name : Sahara.2005.HDRip.avi
Format : AVI
Format/Info : Audio Video Interleave
File size : 1.45 GiB
Duration : 2h 3mn
Overall bit rate : 1 679 Kbps
Writing application : VirtualDubMod 1.5.10.2 (build 2540/release)
Writing library : VirtualDubMod build 2540/release
Video
ID : 0
Format : MPEG-4 Visual
Format profile : Advanced [email protected]
Format settings, BVOP : 1
Format settings, QPel : No
Format settings, GMC : No warppoints
Format settings, Matrix : Custom
Codec ID : XVID
Codec ID/Hint : XviD
Duration : 2h 3mn
Bit rate : 1 478 Kbps
Width : 656 pixels
Height : 368 pixels
Display aspect ratio : 16:9
Frame rate : 23.976 fps
Color space : YUV
Chroma subsampling : 4:2:0
Bit depth : 8 bits
Scan type : Progressive
Compression mode : Lossy
Bits/(Pixel*Frame) : 0.255
Stream size : 1.28 GiB (88%)
Writing library : XviD 65
Audio
ID : 1
Format : AC-3
Format/Info : Audio Coding 3
Mode extension : CM (complete main)
Format settings, Endianness : Big
Codec ID : 2000
Duration : 2h 3mn
Bit rate mode : Constant
Bit rate : 192 Kbps
Channel count : 2 channels
Channel positions : Front: L R
Sampling rate : 48.0 KHz
Bit depth : 16 bits
Compression mode : Lossy
Stream size : 170 MiB (11%)
Alignment : Split accross interleaves
Interleave, duration : 42 ms (1.00 video frame)
Interleave, preload duration : 500 ms

Скриншоты

Яндекс.Метрика
Рейтинг@Mail.ru