[ Сегодня на трекере фрилич! Идет свободное скачивание без начисления Download ]

Очень плохие парни / Big Bad Wolves (Аарон Кешалес, Навот Папушадо / Aharon Keshales, Navot Papushado) [2013 г., триллер, криминал, комедия, WEB-DLRip] MVO [звук с TS] + Sub (Eng)

 

Создавать темы 10-Мар-2014 04:29

--Очень плохие парни / Big Bad Wolves--«Some men are created evil»- -Производство: Израиль, United Channel Movies
Год выпуска: 2013 г.
Жанр: триллер, криминал, комедия
Продолжительность: 01:49:43--Мировая премьера: 21 апреля 2013
Российская премьера: 13 февраля 2014, «UMS Film»--Перевод: Профессиональный (многоголосый, закадровый) [звук с TS]--Режиссер: Аарон Кешалес, Навот Папушадо / Aharon Keshales, Navot Papushado--В ролях: Лиор Ашкенази, Ротем Кейнан, Цахи Град, Довале Гликман, Менаш Ной, Двир Бенедек, Каис Насеф, Нати Клюгер, Ами Вайнберг, Гай Адлер--Описание: Серия жестоких убийств связала в тугой узел судьбы трех людей: отца жертвы, полицейского и главного подозреваемого. Отец жаждет мести. Полицейский действует за рамками закона. А главный подозреваемый — преподаватель теологии — отпущен на свободу по недосмотру полиции.--Качество видео: WEB-DLRip
Контейнер: AVI
Видео кодек: XviD
Аудио кодек: AC3
Видео: 720x304 (2.37:1), 23.976 fps, XviD MPEG-4 ~1581 kbps avg, 0.30 bit/pixel
Аудио: 48 kHz, AC3 Dolby Digital, 2 ch, ~192.00 kbps avg
Cубтитры: Английские (вшитые)
-

Media Info

Формат : AVI
Формат/Информация : Audio Video Interleave
Профиль формата : OpenDML
Настройки формата : rec
Размер файла : 1,36 Гбайт
Продолжительность : 1 ч. 49 м.
Общий поток : 1778 Кбит/сек
Программа кодирования : AVI-Mux GUI 1.17.8.3, Feb 16 201019:42:50
Видео
Идентификатор : 0
Формат : MPEG-4 Visual
Профиль формата : Advanced [email protected]
Параметр BVOP формата : 2
Параметр QPel формата : Нет
Параметр GMC формата : Без точки перехода
Параметр матрицы формата : Default (H.263)
Идентификатор кодека : XVID
Идентификатор кодека/Подсказка : XviD
Продолжительность : 1 ч. 49 м.
Битрейт : 1581 Кбит/сек
Ширина : 720 пикселей
Высота : 304 пикселя
Соотношение сторон : 2,35:1
Частота кадров : 23,976 кадра/сек
Цветовое пространство : YUV
Субдискретизация насыщенности : 4:2:0
Битовая глубина : 8 бит
Тип развёртки : Прогрессивная
Метод сжатия : С потерями
Бит/(Пиксели*Кадры) : 0.301
Размер потока : 1,21 Гбайт (89%)
Библиотека кодирования : XviD 1.2.1 (UTC 2008-12-04)
Аудио
Идентификатор : 1
Формат : AC-3
Формат/Информация : Audio Coding 3
Расширение режима : CM (complete main)
Параметр Endianness формата : Big
Идентификатор кодека : 2000
Продолжительность : 1 ч. 49 м.
Вид битрейта : Постоянный
Битрейт : 192 Кбит/сек
Каналы : 2 канала
Расположение каналов : Front: L R
Частота : 48,0 КГц
Битовая глубина : 16 бит
Метод сжатия : С потерями
Размер потока : 151 Мбайт (11%)
Выравнивание : Соединение по промежуткам
Продолжительность промежутка : 64 мс. (1,53 видеокадра)
Время предзагрузки промежутка : 192 мс.

Скриншоты

Трейлер
Яндекс.Метрика
Рейтинг@Mail.ru