Артур Конан Дойль - Сэр Найджел [2010 г., Людмила Солоха, MP3, 15:38:00]

 

Создавать темы 10-Мар-2014 03:46

-Сэр Найджел-- Год выпуска: 2010 г.
Автор: Артур Конан Дойль
Исполнитель: Людмила Солоха
Жанр: Приключения
Издательство: Нигде не купишь (Клуб любителей аудиокниг)
Тип аудиокниги: аудиокнига-Аудио кодек: MP3
Битрейт аудио: 112 (Файлы №№ 01-15)/96 (Файлы №№ 16-29) kbps, 44 kHz, Mono
Время звучания: 15:38:00-Описание:
Сэр Найджел (1906), (другое название «Сэр Найгель») - исторический роман, посвященный событиям Столетней войны времен Эдуарда III. В романе живописно описываются морское сражение англичан с испанцами в проливе Ла-Манш, но кульминацией романа становится битва при Пуатье, 19 сентября 1356, при которой король Франции Жан был взят в плен сыном Эдуарда, «Эдуардом Чёрным принцем».
Роман «Сэр Найджел» является вторым серьезным историческим произведением Конан Дойля после романа «Белый отряд». Книга хронологически предшествует роману «Белый Отряд» и имеет с ним общих героев - английского лучника йомена Сэмкина Эйлварда, сэра Лоринга. Роман повествует о юности главного героя книги Найджела Лоринга на службе у короля Англии, Нормандии и Аквитании Эдуарда III Английского в начале Столетней Войны. Конан Дойль он воскресил быт и нравы того времени, а главное, представил в героическом ореоле рыцарство, к тому времени уже находившееся в упадке. Романы «Сэр Найджел» и «Белый отряд» печатались в журнале «Корнхилл», а отдельной книгой вышел в 1891 и 1906 годах. Конан Дойль всегда говорил, что считает эти два романа одними из своих лучших произведений.

О Артуре Конан Дойле:

Сэр А́ртур Игна́тиус Ко́нан Дойль (Дойл) (англ. Sir Arthur Ignatius Conan Doyle; 22 мая 1859, Эдинбург - 7 июля 1930, Кроуборо, Сассекс) - шотландский и английский врач и писатель, всемирную известность которому принесли детективные произведения - о Шерлоке Холмсе, приключенческие и научно-фантастические - о профессоре Челленджере, юмористические - о бригадире Жераре, а также исторические романы («Белый отряд» и др.). А. Конан Дойль также - автор пьес («Ватерлоо», «Ангелы Тьмы», «Огни судьбы», «Пёстрая лента»), стихотворений (сборники баллад «Песни действия» (1898) и «Песни дороги»), автобиографических очерков («Записки Старка Монро», также произведение известно как «Загадка Старка Монро») и бытовых романов («Дуэт в сопровождении случайного хора»), соавтор-либреттист оперетты «Джейн Энни» (1893).
Артур Конан Дойль родился в столице Шотландии Эдинбурге 22 мая 1859 года. Отец его был художником.
В 1881 году Конан Дойль окончил медицинский факультет Эдинбургского университета и в качестве корабельного медика совершил путешествие в Африку.
Вернувшись на родину, он занялся медицинской практикой в одном из районов Лондона. Защитил диссертацию, стал доктором медицины. Но постепенно начал писать рассказы и очерки в местные журналы.
Как-то раз он вспомнил одного чудака, некого Джозефа Белла, который был преподавателем в Эдинбургского университете и периодически поражал своих учеников своей чрезмерной наблюдательностью и умением при помощи «дедуктивного метода» разобраться в самых сложных и запутанных проблемах. Так Джозеф Белл под вымышленным именем сыщика—любителя Шерлока Холмса появился в одной из повестей автора. Правда, эта повесть осталась незамеченной, зато следующая - «Знак четырёх» (1890) - принесла ему популярность. В начале 90-х годов XIX века один за другим выходят сборники рассказов «Приключения Шерлока Холмса», «Воспоминания о Шерлоке Холмсе», «Возвращение Шерлока Холмса». «Изюминкой» образа Шерлока Холмса стали интеллектуальность, ироничность и духовный аристократизм, которые придают особый блеск раскрытию запутанных преступлений.
Читатели требовали от автора всё новых и новых произведений о любимом герое, но Конан Дойль понимал, что фантазия его постепенно угасает и написал несколько произведений с другими главными героями - бригадиром Жераром и профессором Челенджером.
Дойль много путешествовал, плавал судовым врачом в Арктику на китобойном судне, в Южную и Западную Африку, служил полевым хирургом во время англо-бурской войны.
В последние годы жизни Конан Дойль занимался спиритизмом и даже издал двухтомный труд «История спиритизма» (1926) за собственный счёт. Также издано три тома его стихотворений.
Умер Конан Дойль в 1930 году в возрасте 71 года. Он сам написал свою эпитафию:

Я выполнил свою простую задачу,
Если дал хотя бы час радости
Мальчику, который уже наполовину мужчина,
Или мужчине - ещё наполовину мальчику.

Media Info

Файлы №№ 01-15:
Общее
Полное имя : [Pirat.ca]_Doyle_Ser.Naidzhel\Doyle_Sir_Nigel_01.mp3
Формат : MPEG Audio
Размер файла : 16,5 Мбайт
Продолжительность : 20 м.
Режим общего битрейта : Постоянный
Общий поток : 112 Кбит/сек
Альбом : Сэр Найджел
Трек : Doyle_Sir_Nigel_01
Трек/Положение : 02
Трек/Всего : 29
Исполнитель : Дойль Артур Конан
Издатель : Клуб Любителей Аудиокниг
Жанр : speech
Дата записи : 2010
Правообладатель : Библиотека Клуба Любителей Аудиокниг
Обложка : Yes
Тип обложки : Cover (front)
MIME-тип обложки : image/jpeg
Примечание : Солоха Людмила
Аудио
Формат : MPEG Audio
Версия формата : Version 1
Профиль формата : Layer 3
Продолжительность : 20 м.
Вид битрейта : Постоянный
Битрейт : 112 Кбит/сек
Каналы : 1 канал
Частота : 44,1 КГц
Метод сжатия : С потерями
Размер потока : 16,4 Мбайт (100%)
Файлы №№ 16-29:
Общее
Полное имя : [Pirat.ca]_Doyle_Ser.Naidzhel\Doyle_Sir_Nigel_15.mp3
Формат : MPEG Audio
Размер файла : 17,9 Мбайт
Продолжительность : 26 м.
Режим общего битрейта : Постоянный
Общий поток : 96,0 Кбит/сек
Альбом : Сэр Найджел
Трек : Doyle_Sir_Nigel_15
Трек/Положение : 16
Трек/Всего : 29
Исполнитель : Дойль Артур Конан
Издатель : Клуб Любителей Аудиокниг
Жанр : speech
Дата записи : 2010
Правообладатель : Библиотека Клуба Любителей Аудиокниг
Обложка : Yes
Тип обложки : Cover (front)
MIME-тип обложки : image/jpeg
Примечание : Солоха Людмила
URL : abook-club.ru
Аудио
Формат : MPEG Audio
Версия формата : Version 1
Профиль формата : Layer 3
Продолжительность : 26 м.
Вид битрейта : Постоянный
Битрейт : 96,0 Кбит/сек
Каналы : 1 канал
Частота : 44,1 КГц
Метод сжатия : С потерями
Размер потока : 17,9 Мбайт (100%)
Яндекс.Метрика
Рейтинг@Mail.ru