Хитмэн / Hitman (Ксавье Жанс / Xavier Gens) [2007 г., боевик, триллер, драма, криминал, BDRip, 720p] Dub + Original (Eng) [Unrated]

 

Создавать темы 09-Мар-2014 03:01

-Хитмэн / Hitman--
Производство: США, Франция
Год выпуска: 2007 г.
Жанр: боевик, триллер, драма, криминал
Продолжительность: 01:34:14
Мировая премьера: 21 ноября 2007
Российская премьера: 29 ноября 2007, «Фокс/Гемини»
Дата выхода DVD: 23 июля 2009, «Двадцатый Век Фокс СНГ»
Дата выхода Blu-Ray: 20 ноября 2008, «Двадцатый Век Фокс СНГ»
Перевод: Профессиональный (полное дублирование)
Оригинальный аудиопоток: английский
Режиссер: Ксавье Жанс / Xavier Gens-В ролях:
Тимоти Олифант, Дюгрей Скотт, Ольга Куриленко, Роберт Неппер, Ульрих Томсен, Генри Йен Кьюсик, Михаэль Оффей, Кристиан Эриксон, Эрик Эбони, Джо Шеридан-Описание:
Хитмэн был обучен, как высоко профессиональный убийца, чье самое мощное оружие — это хладнокровие и безмерная гордость за свою работу. 47 — это две последние цифры на штрихкоде, вытатуированном на его затылке, а также его единственное имя.
Но охотник становится добычей, когда 47-й оказывается втянутым в политические интриги. Интерпол и русские военные начинают охоту на киллера по всей восточной Европе, в то время как он сам пытается понять, кто его подставил и почему они пытаются вывести его из игры. Но самую большую угрозу для 47-го представляет волнение его совести и незнакомые эмоции, пробудившиеся в нем после встречи с прекрасной девушкой…
-

Качество видео: BDRip
Контейнер: MKV
Стандарт разрешения: 720p
Видео кодек: AVC
Аудио кодек: AC3
Видео: 1280x548; 5 879 Kbps; 23.976 fps
Аудио #1: 640 Kbps; 6 ch (Front: L C R, Side: L R, LFE); 48.0 KHz (Rus)
Аудио #2: 640 Kbps; 6 ch (Front: L C R, Side: L R, LFE); 48.0 KHz (Eng)

Media Info

General
Complete name : E:\Hitman (2007) Unrated BDRip 720p.mkv
Format : Matroska
Format version : Version 4 / Version 2
File size : 4.71 GiB
Duration : 1h 34mn
Overall bit rate : 7 161 Kbps
Encoded date : UTC 2014-03-07 17:36:54
Writing application : mkvmerge v6.8.0 ('Theme for Great Cities') 64bit built on Mar 2 2014 21:34:26
Writing library : libebml v1.3.0 + libmatroska v1.4.1
Video #1
ID : 1
Format : AVC
Format/Info : Advanced Video Codec
Format profile : [email protected]
Format settings, CABAC : Yes
Format settings, ReFrames : 8 frames
Codec ID : V_MPEG4/ISO/AVC
Duration : 1h 34mn
Bit rate : 5 879 Kbps
Width : 1 280 pixels
Height : 548 pixels
Display aspect ratio : 2.35:1
Frame rate mode : Constant
Frame rate : 23.976 fps
Color space : YUV
Chroma subsampling : 4:2:0
Bit depth : 8 bits
Scan type : Progressive
Bits/(Pixel*Frame) : 0.350
Stream size : 3.78 GiB (80%)
Title : Hitman 2007
Writing library : x264 core 120
Encoding settings : cabac=1 / ref=8 / deblock=1:-3:-3 / analyse=0x3:0x113 / me=hex / subme=7 / psy=1 / psy_rd=1.00:0.00 / mixed_ref=1 / me_range=16 / chroma_me=1 / trellis=1 / 8x8dct=1 / cqm=0 / deadzone=21,11 / fast_pskip=1 / chroma_qp_offset=-2 / threads=3 / sliced_threads=0 / nr=0 / decimate=1 / interlaced=0 / bluray_compat=0 / constrained_intra=0 / bframes=3 / b_pyramid=2 / b_adapt=2 / b_bias=0 / direct=1 / weightb=1 / open_gop=0 / weightp=2 / keyint=240 / keyint_min=24 / scenecut=40 / intra_refresh=0 / rc_lookahead=10 / rc=2pass / mbtree=1 / bitrate=5879 / ratetol=1.0 / qcomp=0.60 / qpmin=3 / qpmax=69 / qpstep=4 / cplxblur=20.0 / qblur=0.5 / ip_ratio=1.40 / aq=1:1.00
Default : Yes
Forced : No
Color primaries : BT.709
Transfer characteristics : BT.709
Matrix coefficients : BT.709
Audio #2
ID : 2
Format : AC-3
Format/Info : Audio Coding 3
Mode extension : CM (complete main)
Format settings, Endianness : Big
Codec ID : A_AC3
Duration : 1h 34mn
Bit rate mode : Constant
Bit rate : 640 Kbps
Channel(s) : 6 channels
Channel positions : Front: L C R, Side: L R, LFE
Sampling rate : 48.0 KHz
Bit depth : 16 bits
Compression mode : Lossy
Stream size : 431 MiB (9%)
Language : Russian
Default : Yes
Forced : No
Audio #3
ID : 3
Format : AC-3
Format/Info : Audio Coding 3
Mode extension : CM (complete main)
Format settings, Endianness : Big
Codec ID : A_AC3
Duration : 1h 34mn
Bit rate mode : Constant
Bit rate : 640 Kbps
Channel(s) : 6 channels
Channel positions : Front: L C R, Side: L R, LFE
Sampling rate : 48.0 KHz
Bit depth : 16 bits
Compression mode : Lossy
Stream size : 431 MiB (9%)
Language : English
Default : No
Forced : No
Яндекс.Метрика
Рейтинг@Mail.ru