[ Сегодня на трекере фрилич! Идет свободное скачивание без начисления Download ]

Спасти мистера Бэнкса / Saving Mr. Banks (Джон Ли Хэнкок / John Lee Hancock) [2013 г., драма, история, биография, музыка, BDRip-AVC] MVO [Baibako] + Original (Eng) + Sub (Eng) [Jolly Roger]

 

Создавать темы 09-Мар-2014 02:52

-Спасти мистера Бэнкса / Saving Mr. Banks- Год выпуска: 2013 г.
Производство: США, Великобритания, Австралия
Жанр: драма, история, биография, музыка
Продолжительность: 02:05:40
Перевод: Многоголосый, закадровый [Baibako]
Оригинальный аудиопоток: английский
Режиссер: Джон Ли Хэнкок / John Lee Hancock
В ролях: Эмма Томпсон, Том Хэнкс, Пол Джаматти, Джейсон Шварцман, Колин Фаррелл, Энни Роуз Бакли, Рут Уилсон, Брэдли Уитфорд, Б.Дж. Новак, Лили Бигхем
Описание: История постановки классического художественного фильма Disney «Мэри Поппинс».
Когда Уолт Дисней пообещал своим дочерям снять фильм по их любимой книге, сказке Памелы Трэверс «Мэри Поппинс», он даже не подозревал, что на исполнение этого обещания ему понадобится более двадцати лет. В попытке получить права на экранизацию книги, Уолт столкнулся со своенравной и несговорчивой британской писательницей, которая ни в коем случае не хотела, чтобы ее любимая героиня была «испорчена» голливудским подходом к созданию фильмов. Лишь в начале шестидесятых она согласилась лично приехать в Лос-Анджелес и начать переговоры об экранизации.
На протяжении двух недель в 1961 году, пока длились переговоры с Памелой Трэверс, Уолт Дисней перепробовал все уловки. Он презентовал идеи и эскизы к фильму, пытался впечатлить писательницу великолепной музыкой, написанной талантливыми композиторами, братьями Шерман, и даже устраивал экскурсии в Диснейленд — однако Трэверс не шла ни на какие уговоры, и знаменитый кинематографист чуть было не отказался от своего замысла.
Качество видео: BDRip-AVC
Контейнер: MKV
Видео кодек: H.264
Аудио кодек: AC3
Видео: MPEG4 Video (H264) 1056x440 23.976fps 1581 Kbps
Аудио 1, 2: Dolby AC3 48000Hz 6ch 448 Kbps / Русский / Английский
Субтитры: английские (отключаемые)

Media Info / x.264

Log 2-nd pass

x264 [info]: using SAR=1/1
x264 [info]: using cpu capabilities: MMX2 SSE2Fast SSSE3 Cache64 SlowShuffle
x264 [info]: profile High, level 4.1
x264 [info]: frame I:1761 Avg QP:15.13 size: 89420
x264 [info]: frame P:37564 Avg QP:18.46 size: 22406
x264 [info]: frame B:141466 Avg QP:22.80 size: 3471
x264 [info]: consecutive B-frames: 2.1% 2.9% 6.7% 16.8% 17.2% 35.0% 9.7% 4.1% 5.6%
x264 [info]: mb I I16..4: 20.7% 38.2% 41.1%
x264 [info]: mb P I16..4: 3.9% 8.8% 2.7% P16..4: 40.7% 16.6% 14.8% 1.5% 0.4% skip:10.7%
x264 [info]: mb B I16..4: 0.4% 0.8% 0.2% B16..8: 30.2% 7.1% 1.7% direct: 2.0% skip:57.5% L0:44.0% L1:38.0% BI:18.0%
x264 [info]: 8x8 transform intra:54.4% inter:52.2%
x264 [info]: direct mvs spatial:97.4% temporal:2.6%
x264 [info]: coded y,uvDC,uvAC intra: 65.9% 67.7% 38.9% inter: 13.5% 9.4% 2.2%
x264 [info]: i16 v,h,dc,p: 29% 19% 22% 31%
x264 [info]: i8 v,h,dc,ddl,ddr,vr,hd,vl,hu: 29% 16% 18% 4% 6% 7% 6% 7% 7%
x264 [info]: i4 v,h,dc,ddl,ddr,vr,hd,vl,hu: 28% 15% 18% 5% 7% 8% 6% 6% 7%
x264 [info]: i8c dc,h,v,p: 29% 29% 24% 18%
x264 [info]: Weighted P-Frames: Y:3.1% UV:1.4%
x264 [info]: ref P L0: 44.1% 11.7% 20.4% 7.0% 6.7% 4.6% 5.1% 0.4% 0.0%
x264 [info]: ref B L0: 71.0% 14.7% 7.6% 3.8% 2.0% 0.9%
x264 [info]: ref B L1: 91.2% 8.8%
x264 [info]: kb/s:1580.88
x264 [total]: encoded 180791 frames, 2.73 fps, 1580.88 kb/s
General
Unique ID : 237969786418835652825360386224805085050 (0xB307505212E5A42C85B1D8AF93377F7A)
Complete name : G:\Spasti.Mr.Benksa.2013.H.264.BDRip-AVC.JRG.mkv
Format : Matroska
Format version : Version 4 / Version 2
File size : 2.18 GiB
Duration : 2h 5mn
Overall bit rate : 2 479 Kbps
Movie name : The Jolly Roger Release Group by
Encoded date : UTC 2014-03-08 02:25:48
Writing application : mkvmerge v6.6.0 ('The Edge Of The In Between') built on Dec 1 2013 17:55:00
Writing library : libebml v1.3.0 + libmatroska v1.4.1
Video
ID : 1
Format : AVC
Format/Info : Advanced Video Codec
Format profile : [email protected]
Format settings, CABAC : Yes
Format settings, ReFrames : 7 frames
Codec ID : V_MPEG4/ISO/AVC
Duration : 2h 5mn
Bit rate : 1 581 Kbps
Width : 1 056 pixels
Height : 440 pixels
Display aspect ratio : 2.40:1
Frame rate mode : Constant
Frame rate : 23.976 fps
Color space : YUV
Chroma subsampling : 4:2:0
Bit depth : 8 bits
Scan type : Progressive
Bits/(Pixel*Frame) : 0.142
Stream size : 1.35 GiB (62%)
Writing library : x264 core 130 r2273 b3065e6
Encoding settings : cabac=1 / ref=7 / deblock=1:0:0 / analyse=0x3:0x133 / me=umh / subme=10 / psy=0 / mixed_ref=1 / me_range=24 / chroma_me=1 / trellis=2 / 8x8dct=1 / cqm=0 / deadzone=21,11 / fast_pskip=0 / chroma_qp_offset=0 / threads=3 / lookahead_threads=1 / sliced_threads=0 / nr=0 / decimate=1 / interlaced=0 / bluray_compat=0 / constrained_intra=0 / bframes=8 / b_pyramid=2 / b_adapt=2 / b_bias=0 / direct=3 / weightb=1 / open_gop=0 / weightp=2 / keyint=250 / keyint_min=23 / scenecut=40 / intra_refresh=0 / rc_lookahead=50 / rc=2pass / mbtree=1 / bitrate=1581 / ratetol=1.0 / qcomp=0.60 / qpmin=0 / qpmax=69 / qpstep=4 / cplxblur=20.0 / qblur=0.5 / ip_ratio=1.40 / aq=1:1.00
Language : English
Default : Yes
Forced : No
Audio #1
ID : 2
Format : AC-3
Format/Info : Audio Coding 3
Mode extension : CM (complete main)
Format settings, Endianness : Big
Codec ID : A_AC3
Duration : 2h 5mn
Bit rate mode : Constant
Bit rate : 448 Kbps
Channel(s) : 6 channels
Channel positions : Front: L C R, Side: L R, LFE
Sampling rate : 48.0 KHz
Bit depth : 16 bits
Compression mode : Lossy
Stream size : 403 MiB (18%)
Language : Russian
Default : Yes
Forced : No
Audio #2
ID : 3
Format : AC-3
Format/Info : Audio Coding 3
Mode extension : CM (complete main)
Format settings, Endianness : Big
Codec ID : A_AC3
Duration : 2h 5mn
Bit rate mode : Constant
Bit rate : 448 Kbps
Channel(s) : 6 channels
Channel positions : Front: L C R, Side: L R, LFE
Sampling rate : 48.0 KHz
Bit depth : 16 bits
Compression mode : Lossy
Stream size : 403 MiB (18%)
Language : English
Default : No
Forced : No
Text
ID : 4
Format : UTF-8
Codec ID : S_TEXT/UTF8
Codec ID/Info : UTF-8 Plain Text
Language : English
Default : No
Forced : No

Скриншоты

Яндекс.Метрика
Рейтинг@Mail.ru