[ Сегодня на трекере фрилич! Идет свободное скачивание без начисления Download ]

Armin van Buuren presents Gaia - J'ai Envie De Toi (Official Music Video) [2012 г.] (Trance) [WEB HDRip, 720p]

 

Создавать темы 07-Мар-2014 21:37

-Armin van Buuren presents Gaia - J'ai Envie De Toi (Official Music Video)--
Год выпуска: 2012 г.
Страна: Holland
Жанр: Trance
Продолжительность: 00:03:31-Качество видео: WEB HDRip
Контейнер: MP4
Стандарт разрешения: 720p
Видео кодек: H.264
Аудио кодек: AAC
Видео: 1280x720, 7 478 kbps, 25.000 fps
Аудио: 192 kbps, 2 ch., 44,1 kHz
-

Media Info

C:\Моя папка\Музыка\Торрент\Armin van Buuren presents Gaia - J'ai Envie De Toi (Official Music Video).mp4
General
Complete name : C:\Моя папка\Музыка\Торрент\Armin van Buuren presents Gaia - J'ai Envie De Toi (Official Music Video).mp4
Format : MPEG-4
Format profile : Base Media / Version 2
Codec ID : mp42
File size : 63.8 MiB
Duration : 3mn 31s
Overall bit rate mode : Variable
Overall bit rate : 2 527 Kbps
Encoded date : UTC 2013-11-26 04:02:42
Tagged date : UTC 2013-11-26 04:02:42
gsst : 0
gstd : 211973
gssd : B4A7D6F22HH1394216360153579
gshh : r2---sn-n8v7sn7r.googlevideo.com
Video #1
ID : 1
Format : AVC
Format/Info : Advanced Video Codec
Format profile : [email protected]
Format settings, CABAC : Yes
Format settings, ReFrames : 1 frame
Codec ID : avc1
Codec ID/Info : Advanced Video Coding
Duration : 3mn 31s
Bit rate : 2 333 Kbps
Maximum bit rate : 7 478 Kbps
Width : 1 280 pixels
Height : 720 pixels
Display aspect ratio : 16:9
Frame rate mode : Constant
Frame rate : 25.000 fps
Color space : YUV
Chroma subsampling : 4:2:0
Bit depth : 8 bits
Scan type : Progressive
Bits/(Pixel*Frame) : 0.101
Stream size : 58.9 MiB (92%)
Tagged date : UTC 2013-11-26 04:02:46
Audio #2
ID : 2
Format : AAC
Format/Info : Advanced Audio Codec
Format profile : LC
Codec ID : 40
Duration : 3mn 31s
Bit rate mode : Variable
Bit rate : 192 Kbps
Maximum bit rate : 202 Kbps
Channel(s) : 2 channels
Channel positions : Front: L R
Sampling rate : 44.1 KHz
Compression mode : Lossy
Stream size : 4.85 MiB (8%)
Title : IsoMedia File Produced by Google, 5-11-2011
Encoded date : UTC 2013-11-26 04:02:45
Tagged date : UTC 2013-11-26 04:02:46

Скриншоты

-
Яндекс.Метрика
Рейтинг@Mail.ru