(New Age) Richard Hiebinger (Sayama) - Massage: Sacred Healing Waters - 2005, APE (tracks+.cue), lossless

 

Создавать темы 07-Мар-2014 17:13

Richard Hiebinger (Sayama) - Massage: Sacred Healing Waters
Жанр: New Age
Год выпуска диска: 2005
Производитель диска: REAL MUSIC
Аудио кодек: APE
Тип рипа: tracks+.cue
Битрейт аудио: lossless
Продолжительность: 61:52 min
Трэклист:
01 - Calling The Mind To Stillness
02 - Bowls And Gongs Invoke The Sacred
03 - Caressed By A Gentle Breeze
04 - Through The Mist, The Sage
05 - Joy Of The Water Spirits
06 - Drifting Through Time And Space
07 - Aquae Sulis
08 - Quiet Mind (Reprise Of Calling The Mind To Stillness)
Доп. информация:
Exact Audio Copy V0.99 prebeta 4 from 23. January 2008
EAC extraction logfile from 25. June 2008, 18:10
Sayama / Sacred Healing Waters
Used drive : xxxxxxxxx Adapter: 0 ID: 1
Read mode : Secure
Utilize accurate stream : Yes
Defeat audio cache : No
Make use of C2 pointers : Yes
Read offset correction : 667
Overread into Lead-In and Lead-Out : No
Fill up missing offset samples with silence : Yes
Delete leading and trailing silent blocks : No
Null samples used in CRC calculations : Yes
Used interface : Installed external ASPI interface
Gap handling : Not detected, thus appended to previous track
Used output format : User Defined Encoder
Selected bitrate : 1024 kBit/s
Quality : High
Add ID3 tag : Yes
Command line compressor : D:\Exact Audio Copy\wapet.exe
Additional command line options : %d -t "Artist=%a" -t "Title=%t" -t "Album=%g" -t "Year=%y" -t "Track=%n" -t "Genre=%m" mac.exe %s %d -c1000 -v
TOC of the extracted CD
Track | Start | Length | Start sector | End sector
---------------------------------------------------------
1 | 0:00.00 | 8:18.42 | 0 | 37391
2 | 8:18.42 | 6:50.70 | 37392 | 68211
3 | 15:09.37 | 8:02.38 | 68212 | 104399
4 | 23:12.00 | 12:32.54 | 104400 | 160853
5 | 35:44.54 | 9:12.52 | 160854 | 202305
6 | 44:57.31 | 4:25.60 | 202306 | 222240
7 | 49:23.16 | 7:16.53 | 222241 | 254993
8 | 56:39.69 | 5:17.33 | 254994 | 278801
Track 1
Filename H:\Sayama\Sacred Healing Waters (2005) @APE\Sayama - 01 - Calling The Mind To Stillness.wav
Peak level 96.5 %
Track quality 100.0 %
Copy CRC A6C80070
Track not present in AccurateRip database
Copy OK
Track 2
Filename H:\Sayama\Sacred Healing Waters (2005) @APE\Sayama - 02 - Bowls And Gongs Invoke The Sacred.wav
Peak level 70.2 %
Track quality 100.0 %
Copy CRC B8AEF8FE
Track not present in AccurateRip database
Copy OK
Track 3
Filename H:\Sayama\Sacred Healing Waters (2005) @APE\Sayama - 03 - Caressed By A Gentle Breeze.wav
Peak level 100.0 %
Track quality 100.0 %
Copy CRC 423F7EF8
Track not present in AccurateRip database
Copy OK
Track 4
Filename H:\Sayama\Sacred Healing Waters (2005) @APE\Sayama - 04 - Through The Mist, The Sage.wav
Peak level 75.5 %
Track quality 100.0 %
Copy CRC BBD553EB
Track not present in AccurateRip database
Copy OK
Track 5
Filename H:\Sayama\Sacred Healing Waters (2005) @APE\Sayama - 05 - Joy Of The Water Spirits.wav
Peak level 100.0 %
Track quality 99.9 %
Copy CRC 9B1F2887
Track not present in AccurateRip database
Copy OK
Track 6
Filename H:\Sayama\Sacred Healing Waters (2005) @APE\Sayama - 06 - Drifting Through Time And Space.wav
Peak level 98.9 %
Track quality 100.0 %
Copy CRC 5EF0158F
Track not present in AccurateRip database
Copy OK
Track 7
Filename H:\Sayama\Sacred Healing Waters (2005) @APE\Sayama - 07 - Aquae Sulis.wav
Peak level 100.0 %
Track quality 100.0 %
Copy CRC B65C8453
Track not present in AccurateRip database
Copy OK
Track 8
Filename H:\Sayama\Sacred Healing Waters (2005) @APE\Sayama - 08 - Quiet Mind (Reprise Of Calling The Mind To Stillness).wav
Peak level 78.4 %
Track quality 100.0 %
Copy CRC 90C4AE49
Track not present in AccurateRip database
Copy OK
None of the tracks are present in the AccurateRip database
No errors occurred
End of status report
Яндекс.Метрика
Рейтинг@Mail.ru