Я, Франкенштейн / I, Frankenstein (2014) BDRip 1080p

 

Создавать темы 06-Мар-2014 09:45

Информация о фильме:
Название: Я, Франкенштейн
Оригинальное название: I, Frankenstein
Год выпуска: 2014
Жанр: фэнтези, боевик, приключения
Режиссер: Стюарт Битти-В ролях:

Аарон Экхарт (Adam), Ивонн Страховски (Terra), Миранда Отто (Leonore), Билл Найи (Naberius), Джай Кортни (Gideon), Сократис Отто (Zuriel), Аден Янг (Victor Frankenstein), Кэйтлин Стэйси (Keziah), Махеш Джаду (Ophir), Стив Музакис (Helek), Николас Белл (Carl Avery), Дениз Акдениз (Barachel)-Дублёры:
Радик Мухаметзянов (Adam), Валерий Сторожик (Naberius), Илья Исаев (Gideon), Илья Хвостиков (Zuriel; Victor Frankenstein; Barachel), Иван Жарков (Ophir), Максим Пинскер (Dekar)-О фильме:
Он — монстр. Он — двухсотлетний плод безумной фантазии своего создателя. Он — легенда. Мир, в котором он живет, населен древними горгульями и бессмертными демонами, которые сражаются за обладание человечеством. Величественные соборы скрывают огромные арсеналы, за дверьми научных лабораторий проводятся эксперименты по воскрешению мертвых. Война двух кланов могущественных существ достигает своего пика. И только он, Адам, монстр Франкенштейна, в силах ее остановить.-
- Детям до 13 лет просмотр не желателен

Возраст: 12+-Выпущено: США, Австралия / Hopscotch Features, Lakeshore Entertainment, Sidney Kimmel Entertainment
Продолжительность: 01:29:14
Озвучивание: Дублированное [лицензия]-Файл:
Качество: BDRip 1080p
Контейнер: MKV
Видео: AVC, 1920x800 (2.40:1), 11500 kbps, 23,976 fps, 0,312 bpp
Аудио №1: русский / DTS / 5.1 / 48 kHz / 1510 kbps / 16 bit ||
Аудио №2: английский / AC3 / 2 / 48 kHz / 192 kbps / 16 bit-

Лог кодирования

Скриншоты

Media Info

General
Unique ID : 190395415250111463432866841352006659094 (0x8F3CD2B9FC734466BB4A87352A19EC16)
Complete name : E:BDFrankenstein.2014.BDRip.1080.by.Дядя_Лёша.mkv
Format : Matroska
Format version : Version 4 / Version 2
File size : 8.56 GiB
Duration : 1h 33mn
Overall bit rate : 13.2 Mbps
Encoded date : UTC 2014-03-06 03:44:00
Writing application : mkvmerge v6.8.0 ('Theme for Great Cities') 64bit built on Mar 2 2014 21:34:26
Writing library : libebml v1.3.0 + libmatroska v1.4.1
Attachment : Yes
Video
ID : 1
Format : AVC
Format/Info : Advanced Video Codec
Format profile : [email protected]
Format settings, CABAC : Yes
Format settings, ReFrames : 8 frames
Codec ID : V_MPEG4/ISO/AVC
Duration : 1h 33mn
Bit rate : 11.5 Mbps
Width : 1 920 pixels
Height : 800 pixels
Display aspect ratio : 2.40:1
Frame rate mode : Constant
Frame rate : 23.976 fps
Color space : YUV
Chroma subsampling : 4:2:0
Bit depth : 8 bits
Scan type : Progressive
Bits/(Pixel*Frame) : 0.312
Stream size : 7.29 GiB (85%)
Writing library : x264 core 132 r2310 76a5c3a
Encoding settings : cabac=1 / ref=8 / deblock=1:-3:-3 / analyse=0x3:0x113 / me=umh / subme=10 / psy=1 / psy_rd=1.00:0.15 / mixed_ref=1 / me_range=64 / chroma_me=1 / trellis=2 / 8x8dct=1 / cqm=0 / deadzone=21,11 / fast_pskip=0 / chroma_qp_offset=-3 / threads=3 / lookahead_threads=1 / sliced_threads=0 / nr=0 / decimate=0 / interlaced=0 / bluray_compat=0 / constrained_intra=0 / bframes=9 / b_pyramid=2 / b_adapt=2 / b_bias=0 / direct=3 / weightb=1 / open_gop=0 / weightp=2 / keyint=240 / keyint_min=24 / scenecut=40 / intra_refresh=0 / rc_lookahead=60 / rc=2pass / mbtree=0 / bitrate=11500 / ratetol=1.0 / qcomp=1.00 / qpmin=0 / qpmax=69 / qpstep=4 / cplxblur=20.0 / qblur=0.5 / vbv_maxrate=40000 / vbv_bufsize=30000 / nal_hrd=none / ip_ratio=1.40 / pb_ratio=1.30 / aq=1:0.80
Default : Yes
Forced : No
Audio #1
ID : 2
Format : DTS
Format/Info : Digital Theater Systems
Mode : 16
Format settings, Endianness : Big
Codec ID : A_DTS
Duration : 1h 33mn
Bit rate mode : Constant
Bit rate : 1 509 Kbps
Channel(s) : 6 channels
Channel positions : Front: L C R, Side: L R, LFE
Sampling rate : 48.0 KHz
Bit depth : 16 bits
Compression mode : Lossy
Stream size : 1 004 MiB (11%)
Title : Дубляж
Language : Russian
Default : Yes
Forced : No
Audio #2
ID : 3
Format : AC-3
Format/Info : Audio Coding 3
Mode extension : CM (complete main)
Format settings, Endianness : Big
Codec ID : A_AC3
Duration : 1h 33mn
Bit rate mode : Constant
Bit rate : 192 Kbps
Channel(s) : 2 channels
Channel positions : Front: L R
Sampling rate : 48.0 KHz
Bit depth : 16 bits
Compression mode : Lossy
Stream size : 128 MiB (1%)
Title : Оригинал
Language : English
Default : No
Forced : No

Создавать темы 08-Мар-2014 18:32 (спустя 2 дня 8 часов)

Топик был перенесен из форума Зарубежные Фильмы (HD) в форум Зарубежные Фильмы (HD*Rip/LQ, DVDRip, SATRip, VHSRip)
Sergei3744
Яндекс.Метрика
Рейтинг@Mail.ru